Ссылка на приватное зеркало всего за 1$. Внимание количество ограничено!!!

OK

1+1

iTunes

мы

OK

1

WEB-DLRip

Джокер

Пифагор

Ведьмак / The Witcher сериал

iTunes

ПШазам

ОК

Оно 2

iTunes

30
pack

Вам бонус

ВАЖНО

!!Акция!!

Alien_RageХит недели

RePack

Resident Evil 21

ИГРА 18+

pack

RePack

jed

RePack

fifa19

RePack

Assassins Creed: Odyssey

RePack

NEED FOR SPEED™ PAYBACK

4 сезон

9 сезон

Бесстыжие 9 сезон

Все сериалы

все сериалы на PB.wtf

RePack

FAR CRY 5
  

Тихий приют / Silent Retreat (Эйс Джордан) [2016, ужасы, триллер, детектив, WEB-DL 720p] MVO [официальный звук] pb.wtf

Тихий приют через торрент pb.wtf

Размер: 3.13 GB | Добавлен: 1 год 9 мес. назад | Торрент скачан:55 раз
Скачать  

12-04-2018 08:04 Тихий приют Скачать торрент  

Тихий приют / Silent RetreatГод выпуска: 2016
Страна: США
Жанр: ужасы, триллер, детектив
Продолжительность: 01:33:35
Перевод: Профессиональный многоголосый | официальный звук
Субтитры: отсутствуют

Режиссер: Эйс Джордан

rating

В ролях:

Донни Боас, Ребекка Питкин, Дэн Ди Хулио, Эли Билднер, Девон Огден, Эйдан Флинн, Триста Робинсон, Мелани Авалон, Лэндон Эшворт, Джон Керри

Описание:

Шесть сотрудников медиа-компании идут на отдых в изолированный домик в лесу. Когда один из членов пропадает без вести, они обнаруживают, что домик ранее был частной психбольницей, которая была закрыта после обвинений в неправомерных действиях. Один за другим, они становятся жертвами темных тайн, похороненных в домике.

Качество: WEB-DL 720p
Формат: MKV

Видео: 4404 Кбит/с, 1280x676
Аудио#1: AC3, 2 ch, 384 Кбит/с
скриншот  скриншот  скриншот  

Общее
Уникальный идентификатор : 230382088689991734970377720212259990815 (0xAD51F9F07DB94FFC974F6A355AE5ED1F)
Полное имя : E:\торреннты\Tihij.priut.2016.Pof.WEB-DL.72Op_KOSHARA.mkv
Формат : Matroska
Версия формата : Version 2
Размер файла : 3,13 Гбайт
Продолжительность : 1 ч. 33 м.
Режим общего битрейта : Переменный
Общий поток : 4789 Кбит/сек
Дата кодирования : UTC 2018-04-11 17:09:57
Программа кодирования : mkvmerge v8.3.0 ('Over the Horizon') 64bit
Библиотека кодирования : libebml v1.3.1 + libmatroska v1.4.2

Видео
Идентификатор : 1
Формат : AVC
Формат/Информация : Advanced Video Codec
Профиль формата : High@L4.1
Настройки формата : CABAC / 4 Ref Frames
Параметр CABAC формата : Да
Параметр RefFrames формата : 4 кадра
Идентификатор кодека : V_MPEG4/ISO/AVC
Продолжительность : 1 ч. 33 м.
Вид битрейта : Переменный
Битрейт : 4404 Кбит/сек
Максимальный битрейт : 5000 Кбит/сек
Ширина : 1280 пикселей
Высота : 676 пикселей
Соотношение сторон : 1,893
Режим частоты кадров : Постоянный
Частота кадров : 23,976 (24000/1001) кадра/сек
Стандарт вещания : Component
Цветовое пространство : YUV
Субдискретизация насыщенности : 4:2:0
Битовая глубина : 8 бит
Тип развёртки : Прогрессивная
Бит/(Пиксели*Кадры) : 0.208
Размер потока : 2,82 Гбайт (90%)
Default : Да
Forced : Нет
Цветовой диапазон : Limited
Основные цвета : BT.709
Характеристики трансфера : BT.709
Коэффициенты матрицы : BT.709

Аудио
Идентификатор : 2
Формат : AC-3
Формат/Информация : Audio Coding 3
Идентификатор кодека : A_AC3
Продолжительность : 1 ч. 33 м.
Вид битрейта : Постоянный
Битрейт : 384 Кбит/сек
Каналы : 2 канала
Расположение каналов : Front: L R
Частота : 48,0 КГц
Частота кадров : 31,250 кадров/сек (1536 SPF)
Битовая глубина : 16 бит
Метод сжатия : С потерями
Размер потока : 257 Мбайт (8%)
ServiceKind/String : Complete Main
Default : Да
Forced : Нет

pb.wtf



Скачать Тихий приют через торрент http://i77.fastpic.ru/big/2016/0828/5f/c032adbcc6ce44a93138ce199a1f975f.jpg Скачать фильм Тихий приют через торрент бесплантно в хорошем качестве Описание: Шесть сотрудников медиа-компании идут на отдых в изолированный домик в лесу. Когда один из членов пропадает без вести, они ... 7.8 10 4
Торрент: Зарегистрирован [2018-04-12 08:04] · скачан: 55 раз
Статус: T временная
Размер: 3.13 GB
Как cкачать? Как скачать Тихий приют через торрент | qTorrent

% Раздел Тема Автор DL S | L
T Фильмы (мультфильмы) cо спонсором показа (Новинки AVI/MKV) [ 1.37 GB ] Тихий приют / Silent Retreat [2016 WEB-DLRip] MVO [официальный звук] bober100 Скачать
1 | 0
T Фильмы 2016 (Звук TS, Cam, VO, DVO) [ 1.45 GB ] Тихий приют / Silent Retreat [2016 HDRip Любительский одноголосый [VO] sanekbest1 Скачать
1 | 0

28-11-2019 20:33  

Отключить всю рекламу на сайте

12-04-2018 11:33 Тихий приют Скачать торрент  

Проходите мимо Трэшь ТВ-3pb.wtf



    Дорогой пользователь! Огромная просьба, поблагодарите релизера, оцените раздачу и оставьте свои комментарий, если Вы скачали Тихий приют через торрент бесплатно! Внесите свою лепту в развитие PiratBit!
    Комментировать посты могут только пользователи прошедшие не сложную регистрацию
    Показать сообщения:    

    Тихий приют через торрент
    Скачать бесплатно Тихий приют
    Тихий приют скачать торрент
    Тихий приют смотреть онлайн
    Cкачать фильм Тихий приют бесплатно
    Тихий приют скачать торрент в хорошем качестве
    Тихий приют смотреть онлайн бесплатно в хорошем качестве


    Вы не можете начинать темы
    Вы не можете отвечать на сообщения
    Вы не можете редактировать свои сообщения
    Вы не можете удалять свои сообщения
    Вы не можете голосовать в опросах
    Вы не можете прикреплять файлы к сообщениям
    Вы можете скачивать файлы