2 сезон

iTunes

MVO

1

2 сезон

iTunes

iTunes

1 сезон

RePack

30

Новинка

ВАЖНО

ИГРА 18+

pack

RePack

MK11
pack

Легкие деньги

RePack

jed

RePack

fifa19

RePack

RDR2

RePack

NEED FOR SPEED™ PAYBACK

4 сезон

9 сезон

Бесстыжие 9 сезон

Все сериалы

все сериалы на PB.wtf

RePack

FAR CRY 5

Anonymous, добрый вечер, мы не успеваем собрать деньги на оплату серверов за декабрь и январь, помогите нам пожалуйста в это трудное время. В качестве благодарности мы отключим Вам всю рекламу на сайте (укажите свой ник в строку Ваше имя)!

×
  
Magnet ссылка

Вий (Олег Степченко) [2013 г., фэнтези, триллер, приключения, BDRip 1080p, Оригинал] Анаглиф (Дюбуа) pb.wtf

Вий через торрент pb.wtf

Размер: 8.3 GB | Добавлен: 6 лет 8 мес. назад | Торрент скачан:347 раз
Скачать  

16-05-2014 17:13 Вий Скачать торрент  

Вий
Год выпуска: 2013
Страна: Россия, Украина, Германия, Великобритания, Чехия
Жанр: фэнтези, триллер, приключения
Продолжительность: 02:10:12
Перевод: Оригинал

Режиссер: Олег Степченко
Продюссер: Александр Куликов, Руслан Устинов, Алексей Петрухин,
Сценарий: Александр Карпов, Олег Степченко, Николай Гоголь

Бюджет: $26 000 000
Премьера в мире: 30 января 2014



В ролях: Джейсон Флеминг, Алексей Чадов, Агния Дитковските, Андрей Смоляков, Игорь Жижикин, Олег Тактаров, Валерий Золотухин, Нина Русланова, Юрий Цурило, Александр Яковлев,

Описание: ...Начало XVIII века. Картограф Джонатан Грин совершает путешествие из Европы на Восток. Следуя через Трансильванию, он понимает, что заблудился. Изрядно поплутав в тумане, он оказывается в небольшом казацком поселении. Народ живет здесь в затворничестве, оградив себя от любых контактов с остальным миром. Что скрывают жители хутора? Чего боятся и почему прячутся? Ученый решает разгадать тайну, связанную с именем необыкновенного мифического создания — Вия. Древние славянские предания оживают...

Доп. информация: Формат 3D: Анаглиф (Дюбуа)



Качество: BDRip 1080p
Формат: MKV
Видео кодек: H.264
Аудио кодек: AC3
Видео: x264, 1920 x 1080 (16:9), 8742 kbps, 23,976 fps, ( 0.176 bpp)
Аудио#1: Русский / AC3 / 48 KHz / 5.1 ch / 384 Kbps



скриншот   скриншот   скриншот   скриншот   скриншот   скриншот  
Общее
Уникальный идентификатор : 170689183432238693042523583732685153630 (0x80698A7C0F874E0CA1642B6F8867255E)
Полное имя : D: Viy(2014)3D(Anaglyph_Dubois).mkv
Формат : Matroska
Версия формата : Version 4 / Version 2
Размер файла : 8,30 Гбайт
Продолжительность : 2 ч. 10 м.
Общий поток : 9127 Кбит/сек
Название фильма : Вий (2013) BDRip 1080p | 3D-Video | Anaglyph_Dubois
Дата кодирования : UTC 2014-04-12 11:27:32
Программа кодирования : mkvmerge v6.2.0 ('Promised Land') built on Apr 28 2013 12:22:01
Библиотека кодирования : libebml v1.3.0 + libmatroska v1.4.0

Видео
Идентификатор : 1
Формат : AVC
Формат/Информация : Advanced Video Codec
Профиль формата : High@L4.1
MultiView_Count : 2
MultiView_Layout : Anaglyph (cyan/red)
Параметр CABAC формата : Да
Параметр ReFrames формата : 3 кадра
Идентификатор кодека : V_MPEG4/ISO/AVC
Продолжительность : 2 ч. 10 м.
Битрейт : 8742 Кбит/сек
Ширина : 1920 пикселей
Высота : 1080 пикселей
Соотношение сторон : 16:9
Режим частоты кадров : Постоянный
Частота кадров : 23,976 кадра/сек
Цветовое пространство : YUV
Субдискретизация насыщенности : 4:2:0
Битовая глубина : 8 бит
Тип развёртки : Прогрессивная
Бит/(Пиксели*Кадры) : 0.176
Размер потока : 7,79 Гбайт (94%)
Заголовок : Viy(2014)3D(Anaglyph_Dubois).mkv
Библиотека кодирования : x264 core 138 r2358 9e941d1
Настройки программы : cabac=1 / ref=4 / deblock=1:-3:-3 / analyse=0x3:0x113 / me=umh / subme=8 / psy=1 / psy_rd=1.00:0.15 / mixed_ref=1 / me_range=32 / chroma_me=1 / trellis=1 / 8x8dct=1 / cqm=0 / deadzone=21,11 / fast_pskip=1 / chroma_qp_offset=-3 / threads=3 / lookahead_threads=1 / sliced_threads=0 / nr=0 / decimate=1 / interlaced=0 / bluray_compat=0 / constrained_intra=0 / bframes=3 / b_pyramid=1 / b_adapt=2 / b_bias=0 / direct=3 / weightb=0 / open_gop=0 / weightp=2 / keyint=240 / keyint_min=23 / scenecut=40 / intra_refresh=0 / rc_lookahead=50 / rc=2pass / mbtree=1 / bitrate=8742 / ratetol=1.0 / qcomp=0.60 / qpmin=0 / qpmax=69 / qpstep=4 / cplxblur=20.0 / qblur=0.5 / vbv_maxrate=62500 / vbv_bufsize=78125 / nal_hrd=none / ip_ratio=1.40 / aq=1:1.00
Default : Да
Forced : Нет

Аудио
Идентификатор : 2
Формат : AC-3
Формат/Информация : Audio Coding 3
Расширение режима : CM (complete main)
Параметр Endianness формата : Big
Идентификатор кодека : A_AC3
Продолжительность : 2 ч. 10 м.
Вид битрейта : Постоянный
Битрейт : 384 Кбит/сек
Каналы : 6 каналов
Расположение каналов : Front: L C R, Side: L R, LFE
Частота : 48,0 КГц
Битовая глубина : 16 бит
Метод сжатия : С потерями
Размер потока : 358 Мбайт (4%)
Язык : Russian
Default : Да
Forced : Нет

pb.wtf



Скачать Вий через торрент http://i62.fastpic.ru/big/2014/0516/24/02e917e5f28b2034517104fbf9df8624.gif Скачать фильм Вий через торрент бесплантно в хорошем качестве Описание: ...Начало XVIII века. Картограф Джонатан Грин совершает путешествие из Европы на Восток. Следуя через Трансильванию, он понимает, ... 9.7 10 14
Info! Серебряная раздача, засчитывается только 50% скачанного.
Торрент: Зарегистрирован [2014-05-16 17:13] · скачан: 347 раз
Статус: √ проверено
Размер: 8.3 GB
Как cкачать? Как скачать Вий через торрент | UTorrent

% Раздел Тема Автор DL S | L
Фильмы [HD 720p, 1080p] (Хороший звук DUB, MVO) [ 11.92 GB ] Вий [2013 BDRip 1080p ] Seedtank Скачать
1 | 0
Зарубежная Поп музыка (mp3) [ 80 MB ] ABBA - ВИА АББА 1977 / MP3 / 320 kbps / Pop Dance Disco Retro megatoxa Скачать
2 | 0
Наши сериалы [ 7.62 GB ] Истребители. Последний бой / Сезон:2 / Серии:1-12 из 12 [2015 Военный WEB-DLRip] lug30 Скачать
1 | 0
Наши сериалы [ 1.84 GB ] Смерш / Серии: 1-4 из 4 [2007 Военный DVDRip] lug30 Скачать
1 | 0
Отечественная Поп музыка (mp3) [ 132 MB ] ВИА Пламя - Не повторяется такое никогда 1996 / MP3 / 320 kbps / Советская эстрада Retro megatoxa Скачать
1 | 0
Наши фильмы 2013 [ 1.46 GB ] Вий [2013 фентези DVDRip] Ворон Скачать
1 | 0
Порно фильмы с сюжетом [ 1.29 GB ] Рабыня Содомских Удовольствий / Schiava Dei Piaceri Di Sodoma [1995 Feature DVDRip Оригинал] Pir@tya2010 Скачать
1 | 0

28-11-2019 20:33  

Отключить всю рекламу на сайте

04-10-2014 11:33 Вий Скачать торрент  

Встаньте кто-нибудь на раздачу пожалустоpb.wtf



06-11-2016 12:06 Вий Скачать торрент  

блин раздайте пожалуйстаpb.wtf



    Дорогой пользователь! Огромная просьба, поблагодарите релизера, оцените раздачу и оставьте свои комментарий, если Вы скачали Вий через торрент бесплатно! Внесите свою лепту в развитие PiratBit!
    Комментировать посты могут только пользователи прошедшие не сложную регистрацию
    Показать сообщения:    

    Вий через торрент
    Скачать бесплатно Вий
    Вий скачать торрент
    Вий смотреть онлайн
    Cкачать фильм Вий бесплатно
    Вий скачать торрент в хорошем качестве
    Вий смотреть онлайн бесплатно в хорошем качестве


    Вы не можете начинать темы
    Вы не можете отвечать на сообщения
    Вы не можете редактировать свои сообщения
    Вы не можете удалять свои сообщения
    Вы не можете голосовать в опросах
    Вы не можете прикреплять файлы к сообщениям
    Вы можете скачивать файлы