Доктор Стрэндж

Лицензия

Добыча

Дубляж

Дом дракона

1 сезон

Тор

Дубляж

В эфире

Дубляж

Там, где раки поют

MVO

Властелин колец

1 сезон

GLOBAL

pack

Рекомендуем

30

Пиратка

ВАЖНО

ВАЖНО

Ghostwire

Пиратка

jed

RePack

nioh2

RePack

RDR2

RePack

NEED FOR SPEED™ PAYBACK

RePack

скачать торрент

Кинопоиск HD

Острые козырьки 6 сезон

6 сезон

FAR CRY 6

RePack

скачать торрент

Лицензия

скачать торрент

MVO

1

1 сезон

скачать торрент

1 сезон

скачать торрент

Лицензия

  

История призрака / A Ghost Story (Дэвид Лоури) [2017, фэнтези, драма, мелодрама, BDRemux 1080p] Дубляж - [Лицензия]

История призрака через торрент pb.wtf

Размер: 15.78 GB | Добавлен: 4 года 6 мес. назад | Торрент скачан:44 раза
Смотреть онлайн | Скачать   

13-04-2018 04:07 История призрака Скачать торрент  

История призрака / A Ghost Story

Год выпуска: 2017
Страна: США
Жанр: фэнтези, драма, мелодрама
Продолжительность: 01:32:07
Перевод: Дублированный [Лицензия]
Субтитры: Русские, английские
Режиссер: Дэвид Лоури
В ролях:

Кейси Аффлек, Руни Мара, МакКольм Сепас мл. (Little Boy), Кеннейша Томпсон (Doctor), Гроувер Колсон (Man in Wheelchair), Лизбет Карденас (Linda), Барлоу Джейкобс (Gentleman Caller), Richard Krause (Mover), Дэггер Салазар (Mover), Соня Асеведо (Maria), Карлос Бермудес (Carlos), Ясмина Гутьеррес (Yasmina)
Описание:
История о безвременно умершем мужчине, который не ушел в мир иной, а остался привязан к своему бывшему дому до скончания веков.
Рейтинг:

MPAA: R - Лицам до 17 лет обязательно присутствие взрослого
Качество: BDRemux 1080p
Формат: MKV
Видео: MPEG-4 AVC, 19.9 Мбит/с, 1920х1080
Аудио #01: 48 kHz, DTS, 6 ch, 768 Кбит/с | Русский
Аудио #02: 48 kHz, AC3, 6 ch, 448Kbps | Русский
Аудио #03: 48 kHz, DTS-HD MA, 5.1, 3422 Kbps | Aнглийский
Навигация по главам: есть
General
Unique ID : 100813775594108939705541337941427062618 (0x4BD806E461F68116AAB74440E177875A)
Complete name : C:\Video111\A.Ghost.Story.2017.Lic.BDREMUX.1080p.ExKinoRay.mkv
Format : Matroska
Format version : Version 4 / Version 2
File size : 15.8 GiB
Duration : 1 h 32 min
Overall bit rate mode : Variable
Overall bit rate : 24.5 Mb/s
Movie name : A Ghost Story 2017 from ExKinoRay
Encoded date : UTC 2018-05-18 10:50:55
Writing application : mkvmerge v22.0.0 ('At The End Of The World') 64-bit
Writing library : libebml v1.3.5 + libmatroska v1.4.8

Video
ID : 1
Format : AVC
Format/Info : Advanced Video Codec
Format profile : [email protected]
Format settings : CABAC / 4 Ref Frames
Format settings, CABAC : Yes
Format settings, ReFrames : 4 frames
Codec ID : V_MPEG4/ISO/AVC
Duration : 1 h 32 min
Bit rate mode : Variable
Bit rate : 19.9 Mb/s
Maximum bit rate : 37.0 Mb/s
Width : 1 920 pixels
Height : 1 080 pixels
Display aspect ratio : 16:9
Frame rate mode : Constant
Frame rate : 23.976 (24000/1001) FPS
Color space : YUV
Chroma subsampling : 4:2:0
Bit depth : 8 bits
Scan type : Progressive
Bits/(Pixel*Frame) : 0.400
Stream size : 12.8 GiB (81%)
Language : English
Default : Yes
Forced : No

Audio #1
ID : 2
Format : DTS
Format/Info : Digital Theater Systems
Codec ID : A_DTS
Duration : 1 h 32 min
Bit rate mode : Constant
Bit rate : 768 kb/s
Channel(s) : 6 channels
Channel positions : Front: L C R, Side: L R, LFE
Sampling rate : 48.0 kHz
Frame rate : 93.750 FPS (512 SPF)
Bit depth : 24 bits
Compression mode : Lossy
Stream size : 506 MiB (3%)
Title : Дубляж [License]
Language : Russian
Default : Yes
Forced : Yes

Audio #2
ID : 3
Format : AC-3
Format/Info : Audio Coding 3
Codec ID : A_AC3
Duration : 1 h 32 min
Bit rate mode : Constant
Bit rate : 448 kb/s
Channel(s) : 6 channels
Channel positions : Front: L C R, Side: L R, LFE
Sampling rate : 48.0 kHz
Frame rate : 31.250 FPS (1536 SPF)
Bit depth : 16 bits
Compression mode : Lossy
Stream size : 295 MiB (2%)
Title : Дубляж [License]
Language : Russian
Service kind : Complete Main
Default : No
Forced : No

Audio #3
ID : 4
Format : DTS
Format/Info : Digital Theater Systems
Format profile : MA / Core
Codec ID : A_DTS
Duration : 1 h 32 min
Bit rate mode : Variable / Constant
Bit rate : 3 422 kb/s / 1 509 kb/s
Channel(s) : 6 channels
Channel positions : Front: L C R, Side: L R, LFE
Sampling rate : 48.0 kHz
Frame rate : 93.750 FPS (512 SPF)
Bit depth : 24 bits
Compression mode : Lossless / Lossy
Stream size : 2.20 GiB (14%)
Title : Original
Language : English
Default : No
Forced : No

Text #1
ID : 5
Format : UTF-8
Codec ID : S_TEXT/UTF8
Codec ID/Info : UTF-8 Plain Text
Duration : 45 min 51 s
Bit rate : 5 b/s
Count of elements : 43
Stream size : 1.74 KiB (0%)
Title : Forced
Language : Russian
Default : Yes
Forced : Yes

Text #2
ID : 6
Format : UTF-8
Codec ID : S_TEXT/UTF8
Codec ID/Info : UTF-8 Plain Text
Duration : 40 min 10 s
Bit rate : 5 b/s
Count of elements : 43
Stream size : 1.66 KiB (0%)
Title : Songs
Language : Russian
Default : No
Forced : Yes

Text #3
ID : 7
Format : UTF-8
Codec ID : S_TEXT/UTF8
Codec ID/Info : UTF-8 Plain Text
Duration : 1 h 27 min
Bit rate : 21 b/s
Count of elements : 332
Stream size : 13.8 KiB (0%)
Title : Full
Language : Russian
Default : No
Forced : No

Text #4
ID : 8
Format : UTF-8
Codec ID : S_TEXT/UTF8
Codec ID/Info : UTF-8 Plain Text
Duration : 1 h 24 min
Bit rate : 16 b/s
Count of elements : 273
Stream size : 10.1 KiB (0%)
Title : Full
Language : English
Default : No
Forced : No

Menu #1
00:00:00.000 : en:00:00:00.000
00:05:01.927 : en:00:05:01.927
00:10:08.733 : en:00:10:08.733
00:12:32.794 : en:00:12:32.794
00:16:22.398 : en:00:16:22.398
00:19:19.617 : en:00:19:19.617
00:24:53.325 : en:00:24:53.325
00:30:23.989 : en:00:30:23.989
00:34:51.673 : en:00:34:51.673
00:39:08.680 : en:00:39:08.680
00:43:25.812 : en:00:43:25.812
00:48:20.564 : en:00:48:20.564
00:54:38.692 : en:00:54:38.692
00:59:39.785 : en:00:59:39.785
01:03:49.117 : en:01:03:49.117
01:09:59.570 : en:01:09:59.570
01:14:04.857 : en:01:14:04.857
01:20:20.274 : en:01:20:20.274
01:24:30.732 : en:01:24:30.732
01:30:22.667 : en:01:30:22.667
01:35:23.760 : en:01:35:23.760
01:38:46.546 : en:01:38:46.546
01:43:07.723 : en:01:43:07.723
01:49:27.853 : en:01:49:27.853



Скачать История призрака через торрент http://i105.fastpic.ru/big/2018/0413/c7/29b33d0d3f5d2b82400f44e1e5a478c7.jpg Скачать, смотреть онлайн История призрака бесплантно в хорошем качестве Описание: История о безвременно умершем мужчине, который не ушел в мир иной, а остался привязан к своему бывшему дому до скончания веков.✪ ... 10 10 5
Торрент: Зарегистрирован [2018-05-18 17:10] · скачан: 44 раз
Статус: √ проверено
Размер: 15.78 GB
Как cкачать? Как скачать История призрака через торрент | UTorrent

% Раздел Тема Автор DL S | L
Фильмы 2017 [DVDrip, WEB-DLRip, HDrip] (DUB, MVO) [ 1.46 GB ] История призрака / A Ghost Story | Лицензия | BDRip Twi7ter Скачать
1 | 0
Фильмы [HD 720p, 1080p] (Хороший звук DUB, MVO) [ 8.98 GB ] История призрака / A Ghost Story | iTunes | 1080p bober100 Скачать
1 | 0
Фильмы с авторской озвучкой [ 1.51 GB ] История призрака / A Ghost Story | AVO | HDRip Enigma2010 Скачать
1 | 0
Фильмы 2017 [DVDrip, WEB-DLRip, HDrip] (DUB, MVO) [ 709 MB ] История призрака / A Ghost Story | iTunes" | DLRip, Дубляж "iTunes" coc900 Скачать
1 | 0
Фильмы 2017 [DVDrip, WEB-DLRip, HDrip] (DUB, MVO) [ 1.42 GB ] История призрака / A Ghost Story | iTunes | BDRip bober100 Скачать
1 | 0
Фильмы 2017 [DVDrip, WEB-DLRip, HDrip] (DUB, MVO) [ 1.88 GB ] История призрака / A Ghost Story | iTunes | BDRip-AVC bober100 Скачать
1 | 0



Последний раз редактировалось: sheker187 (2018-05-18 17:14), всего редактировалось 2 раз(а)

28-11-2019 20:33  


Отключить вcю реклaмy на сайте, в т.ч. и в плеере онлайн просмотра!

13-04-2018 20:29 История призрака Скачать торрент  

Фильм полное , не поленюсь написать!!! не тратьте время



18-05-2018 17:12 История призрака Скачать торрент  

Замена звука на лицензию



    Дорогой пользователь! Огромная просьба, поблагодарите релизера, оцените раздачу и оставьте свои комментарий, если Вы скачали История призрака через торрент бесплатно!!
    Комментировать посты могут только пользователи прошедшие не сложную регистрацию
    Показать сообщения:    


    История призрака через торрент
    Скачать бесплатно История призрака
    История призрака скачать торрент
    История призрака смотреть онлайн
    Cкачать фильм История призрака бесплатно
    История призрака скачать торрент в хорошем качестве
    История призрака смотреть онлайн бесплатно в хорошем качестве
    Вы не можете начинать темы
    Вы не можете отвечать на сообщения
    Вы не можете редактировать свои сообщения
    Вы не можете удалять свои сообщения
    Вы не можете голосовать в опросах
    Вы не можете прикреплять файлы к сообщениям
    Вы можете скачивать файлы
    История призрака / A Ghost Story [2017, фэнтези, драма, мелодрама, BDRemux 1080p] Дубляж - [Лицензия] смотреть онлайн, скачать торрент picoco.icu