2 сезон

iTunes

MVO

1

2 сезон

iTunes

iTunes

1 сезон

RePack

30

Ultimate

ВАЖНО

ИГРА 18+

pack

RePack

MK11
pack

Легкие деньги

RePack

jed

RePack

fifa19

RePack

RDR2

RePack

NEED FOR SPEED™ PAYBACK

4 сезон

9 сезон

Бесстыжие 9 сезон

Все сериалы

все сериалы на PB.wtf

RePack

FAR CRY 5

Anonymous, добрый вечер, мы не успеваем собрать деньги на оплату серверов за декабрь и январь, помогите нам пожалуйста в это трудное время. В качестве благодарности мы отключим Вам всю рекламу на сайте (укажите свой ник в строку Ваше имя)!

×
  
Magnet ссылка

Охота на воров / Den of Thieves (Кристиан Гьюдгэст) [2018 г., Боевик, триллер, драма, криминал, детектив, WEB-DLRip, КПК] Dub [iTunes] pb.wtf

Охота на воров через торрент pb.wtf

Размер: 531 MB | Добавлен: 2 года 9 мес. назад | Торрент скачан:111 раз
Скачать  

13-04-2018 18:37 Охота на воров Скачать торрент  

Охота на воров / Den of Thieves

Год выпуска: 2018
Страна: США
Жанр: Боевик, триллер, драма, криминал, детектив
Продолжительность: 02:20:01
Перевод: Дубляж [iTunes]

Режиссер: Кристиан Гьюдгэст

rating

В ролях

Джерард Батлер, Джордан Бриджес, Пабло Шрайбер, Ивэн Джонс, О`Ши Джексон мл., 50 Cent, Соня Балморес, Эрик Браден, Брайан Ван Холт, Морис Комт.

Описание

Большой Ник — начальник элитного подразделения полиции Лос-Анджелеса — ежедневно доказывает, что его команда более крутая, чем те, на кого они охотятся. Когда коп узнает, что легендарный и неуловимый вор планирует дерзкое ограбление Федерального резервного банка США, то он решает помешать этому любым способом. И играть по правилам он не привык.

Качество: WEB-DLRip
Формат: MP4
Видео кодек: AVC
Аудио кодек: AAC LC

Видео: Н.264, 640x264 (2.40:1), 23.976 fps, 400 Kbps
Аудио: AAC LC, 48.0 KHz, 2 ch, 128 Kbps


General
Complete name : D:\Ohota.na.vorov.2018.WEB-DLRip.by.mjjhec.mp4
Format : MPEG-4
Format profile : Base Media
Codec ID : isom (isom/avc1/iso6)
File size : 531 MiB
Duration : 2h 20mn
Overall bit rate mode : Variable
Overall bit rate : 530 Kbps
Encoded date : UTC 2018-04-12 09:03:19
Tagged date : UTC 2018-04-12 09:03:19

Video
ID : 1
Format : AVC
Format/Info : Advanced Video Codec
Format profile : High@L4.1
Format settings, CABAC : Yes
Format settings, ReFrames : 10 frames
Codec ID : avc1
Codec ID/Info : Advanced Video Coding
Duration : 2h 20mn
Bit rate : 400 Kbps
Maximum bit rate : 1 146 Kbps
Width : 640 pixels
Height : 264 pixels
Display aspect ratio : 2.40:1
Frame rate mode : Constant
Frame rate : 23.976 (24000/1001) fps
Color space : YUV
Chroma subsampling : 4:2:0
Bit depth : 8 bits
Scan type : Progressive
Bits/(Pixel*Frame) : 0.099
Stream size : 399 MiB (75%)
Title : 264@GPAC0.5.2-DEV-rev248-g39d5978-master
Writing library : x264 core 146 r2538 121396c
Encoding settings : cabac=1 / ref=10 / deblock=1:-3:-3 / analyse=0x3:0x133 / me=umh / subme=11 / psy=1 / psy_rd=1.00:1.00 / mixed_ref=1 / me_range=48 / chroma_me=1 / trellis=2 / 8x8dct=1 / cqm=0 / deadzone=21,11 / fast_pskip=1 / chroma_qp_offset=-4 / threads=6 / lookahead_threads=1 / sliced_threads=0 / nr=0 / decimate=0 / interlaced=0 / bluray_compat=0 / constrained_intra=0 / bframes=10 / b_pyramid=2 / b_adapt=2 / b_bias=0 / direct=3 / weightb=1 / open_gop=0 / weightp=2 / keyint=240 / keyint_min=23 / scenecut=40 / intra_refresh=0 / rc_lookahead=60 / rc=2pass / mbtree=0 / bitrate=400 / ratetol=1.0 / qcomp=0.60 / qpmin=0 / qpmax=69 / qpstep=4 / cplxblur=20.0 / qblur=0.5 / vbv_maxrate=14000 / vbv_bufsize=14000 / nal_hrd=none / filler=0 / ip_ratio=1.40 / pb_ratio=1.30 / aq=1:1.00
Encoded date : UTC 2018-04-12 09:03:19
Tagged date : UTC 2018-04-12 09:03:40

Audio
ID : 2
Format : AAC
Format/Info : Advanced Audio Codec
Format profile : LC
Codec ID : 40
Duration : 2h 20mn
Bit rate mode : Variable
Bit rate : 128 Kbps
Maximum bit rate : 137 Kbps
Channel(s) : 2 channels
Channel positions : Front: L R
Sampling rate : 48.0 KHz
Frame rate : 46.875 fps (1024 spf)
Compression mode : Lossy
Stream size : 128 MiB (24%)
Encoded date : UTC 2018-04-12 06:30:01
Tagged date : UTC 2018-04-12 09:03:40

pb.wtf



Скачать Охота на воров через торрент http://i104.fastpic.ru/big/2018/0411/7e/4e90552d694fa537ebe1cf6dcabd747e.jpg Скачать фильм Охота на воров через торрент бесплантно в хорошем качестве ОписаниеБольшой Ник — начальник элитного подразделения полиции Лос-Анджелеса — ежедневно доказывает, что его команда более крутая, чем те, ... 8.4 10 5
Торрент: Зарегистрирован [2018-04-13 18:37] · скачан: 111 раз
Статус: √ проверено
Размер: 531 MB
Как cкачать? Как скачать Охота на воров через торрент | UTorrent

% Раздел Тема Автор DL S | L
Фильмы (HD 720p, 1080p) (48-60 fps) [ 5.35 GB ] Охота на воров / Den of Thieves [2018 BDRip - HEVC 1080p 10 bit 60 FPS AVO Яроцкий] dd2d3 Скачать
4 | 0
Фильмы с авторской озвучкой [ 2.63 GB ] Охота на воров / Вертеп разбойников / Логово грабителей / Den of Thieves [2018 BDRip] [Расширенная версия / Unrated Cut] 2x[AVO] killermax2013 Скачать
1 | 0
Фильмы с авторской озвучкой [ 2.47 GB ] Охота на воров / Den of Thieves [2018 BDRip-AVC] [UNRATED] [AVO] killermax2013 Скачать
1 | 0
Фильмы (Blu-ray, BD-Remux, HDDVD) [ 33.81 GB ] Охота на воров / Den of Thieves [2018 BD Remux 1080p] DUB [] [Театральная версия] bober100 Скачать
1 | 0
Фильмы 2018 [DVDrip, WEB-DLRip, HDrip] (DUB, MVO) [ 2.16 GB ] Охота на воров / Den of Thieves [2018 BDRip-AVC] - [] - ExKinoRay Enigma2010 Скачать
6 | 0
Фильмы 2018 [DVDrip, WEB-DLRip, HDrip] (DUB, MVO) [ 2.18 GB ] Охота на воров / Den of Thieves [2018 BDRip] - [] Twi7ter Скачать
1 | 0
Фильмы (Blu-ray, BD-Remux, HDDVD) [ 30.18 GB ] Охота на воров / Den of Thieves [2018 Blu-ray 1080p ] DUB [] [Театральная версия] bober100 Скачать
1 | 0

28-11-2019 20:33  

Отключить всю рекламу на сайте

    Дорогой пользователь! Огромная просьба, поблагодарите релизера, оцените раздачу и оставьте свои комментарий, если Вы скачали Охота на воров через торрент бесплатно! Внесите свою лепту в развитие PiratBit!
    Комментировать посты могут только пользователи прошедшие не сложную регистрацию
    Показать сообщения:    

    Охота на воров через торрент
    Скачать бесплатно Охота на воров
    Охота на воров скачать торрент
    Охота на воров смотреть онлайн
    Cкачать фильм Охота на воров бесплатно
    Охота на воров скачать торрент в хорошем качестве
    Охота на воров смотреть онлайн бесплатно в хорошем качестве


    Вы не можете начинать темы
    Вы не можете отвечать на сообщения
    Вы не можете редактировать свои сообщения
    Вы не можете удалять свои сообщения
    Вы не можете голосовать в опросах
    Вы не можете прикреплять файлы к сообщениям
    Вы можете скачивать файлы