2 сезон

iTunes

MVO

1

2 сезон

iTunes

iTunes

1 сезон

RePack

30

Новинка

ВАЖНО

ИГРА 18+

pack

RePack

MK11
pack

Легкие деньги

RePack

jed

RePack

fifa19

RePack

RDR2

RePack

NEED FOR SPEED™ PAYBACK

4 сезон

9 сезон

Бесстыжие 9 сезон

Все сериалы

все сериалы на PB.wtf

RePack

FAR CRY 5

Anonymous, доброй ночи, мы не успеваем собрать деньги на оплату серверов за декабрь и январь, помогите нам пожалуйста в это трудное время. В качестве благодарности мы отключим Вам всю рекламу на сайте (укажите свой ник в строку Ваше имя)!

×
  
Magnet ссылка

Все святые / All Saints (Стив Гомер) [2017, Драма, BDRip-AVC] MVO [Лицензия] pb.wtf

Все святые через торрент pb.wtf

Размер: 1.67 GB | Добавлен: 2 года 9 мес. назад | Торрент скачан:65 раз
Скачать  

14-04-2018 02:13 Все святые Скачать торрент  

Все святые / All Saints
Год выпуска: 2017
Страна: США
Жанр: Драма
Продолжительность: 01:48:49
Перевод: Профессиональный многоголосый | Лицензия
Субтитры: Русские, английские

Режиссер: Стив Гомер

rating

В ролях:

Кара Буоно, Бэрри Корбин, Джон Корбетт, Дэвид Кит Грегори, Алан Уильямс, Патрик Джонсон, Шонда Пирс, Джессиджеймс Локоррьер, Нельсон Ли

Описание:

Фильм рассказывает правдивую историю о бывшем продавце Майкле, который стал пастырем. Его первым заданием на новом поприще становится поездка в провинциальный городок в Теннесси, где ему нужно закрыть одну маленькую церковь. Если он успешно справится с заданием, то будет переведен в церковь в большом городе, и это назначение нужно и ему и его семье. Однако с виду простая задача оборачивается непредвиденными сложностями – в городок прибывают беженцы из Бирмы, где бушует война, и приходят в церковь за помощью.

Качество: BDRip-AVC
Формат: MKV

Видео: 1024x428 (2.40:1), 23.976 fps, x264 ~1 289 kbps avg, 0.123 bit/pixel
Аудио#1: 48 kHz, AC3 Dolby Digital, 3/2 (L,C,R,l,r) + LFE ch, ~448.00 kbps avg | RUS (Лицензия)
Аудио#2: 48 kHz, AC3 Dolby Digital, 3/2 (L,C,R,l,r) + LFE ch, ~448.00 kbps avg | ENG
скриншот   скриншот   скриншот   скриншот  

бщее
Уникальный идентификатор : 175926115782163474897549390749919611024 (0x845A232F2ABCDA44A59FDF86987C0890)
Полное имя : E:OlLanDGroupAll.Saints.2017.BDRip(AVC).OlLanDGroup.mkv
Формат : Matroska
Версия формата : Version 2
Размер файла : 1,67 Гбайт
Продолжительность : 1 ч. 48 м.
Общий поток : 2194 Кбит/сек
Название фильма : All.Saints.2017.BDRip #TorpedoUK#
Дата кодирования : UTC 2018-04-13 23:20:01
Программа кодирования : mkvmerge v7.8.0 ('River Man') 32bit built on Apr 3 2015 12:11:22
Библиотека кодирования : libebml v1.3.1 + libmatroska v1.4.2

Видео
Идентификатор : 1
Формат : AVC
Формат/Информация : Advanced Video Codec
Профиль формата : High@L4.1
Параметр CABAC формата : Да
Параметр ReFrames формата : 10 кадров
Идентификатор кодека : V_MPEG4/ISO/AVC
Продолжительность : 1 ч. 48 м.
Битрейт : 1289 Кбит/сек
Ширина : 1024 пикселя
Высота : 428 пикселей
Соотношение сторон : 2,40:1
Режим частоты кадров : Постоянный
Частота кадров : 23,976 (24000/1001) кадра/сек
Цветовое пространство : YUV
Субдискретизация насыщенности : 4:2:0
Битовая глубина : 8 бит
Тип развёртки : Прогрессивная
Бит/(Пиксели*Кадры) : 0.123
Размер потока : 976 Мбайт (57%)
Библиотека кодирования : x264 core 146 r2538 121396c
Настройки программы : cabac=1 / ref=10 / deblock=1:-2:-3 / analyse=0x3:0x133 / me=umh / subme=11 / psy=1 / psy_rd=0.98:0.06 / mixed_ref=1 / me_range=48 / chroma_me=1 / trellis=2 / 8x8dct=1 / cqm=0 / deadzone=21,11 / fast_pskip=1 / chroma_qp_offset=-3 / threads=6 / lookahead_threads=1 / sliced_threads=0 / nr=0 / decimate=1 / interlaced=0 / bluray_compat=0 / constrained_intra=0 / bframes=10 / b_pyramid=2 / b_adapt=2 / b_bias=0 / direct=3 / weightb=1 / open_gop=0 / weightp=2 / keyint=240 / keyint_min=23 / scenecut=40 / intra_refresh=0 / rc_lookahead=40 / rc=2pass / mbtree=0 / bitrate=1289 / ratetol=1.0 / qcomp=0.60 / qpmin=0 / qpmax=69 / qpstep=4 / cplxblur=20.0 / qblur=0.5 / vbv_maxrate=50000 / vbv_bufsize=62500 / nal_hrd=none / filler=0 / ip_ratio=1.40 / pb_ratio=1.30 / aq=1:1.00
Язык : English
Default : Да
Forced : Нет

Аудио #1
Идентификатор : 2
Формат : AC-3
Формат/Информация : Audio Coding 3
Расширение режима : CM (complete main)
Параметр Endianness формата : Big
Идентификатор кодека : A_AC3
Продолжительность : 1 ч. 48 м.
Вид битрейта : Постоянный
Битрейт : 448 Кбит/сек
Каналы : 6 каналов
Расположение каналов : Front: L C R, Side: L R, LFE
Частота : 48,0 КГц
Частота кадров : 31,250 кадров/сек (1536 spf)
Битовая глубина : 16 бит
Метод сжатия : С потерями
Размер потока : 349 Мбайт (20%)
Заголовок : Lic
Язык : Russian
Default : Да
Forced : Нет

Аудио #2
Идентификатор : 3
Формат : AC-3
Формат/Информация : Audio Coding 3
Расширение режима : CM (complete main)
Параметр Endianness формата : Big
Идентификатор кодека : A_AC3
Продолжительность : 1 ч. 48 м.
Вид битрейта : Постоянный
Битрейт : 448 Кбит/сек
Каналы : 6 каналов
Расположение каналов : Front: L C R, Side: L R, LFE
Частота : 48,0 КГц
Частота кадров : 31,250 кадров/сек (1536 spf)
Битовая глубина : 16 бит
Метод сжатия : С потерями
Размер потока : 349 Мбайт (20%)
Заголовок : Original
Язык : English
Default : Нет
Forced : Нет

Текст #1
Идентификатор : 4
Формат : UTF-8
Идентификатор кодека : S_TEXT/UTF8
Идентификатор кодека/Информация : UTF-8 Plain Text
Заголовок : Full
Язык : Russian
Default : Нет
Forced : Нет

Текст #2
Идентификатор : 5
Формат : UTF-8
Идентификатор кодека : S_TEXT/UTF8
Идентификатор кодека/Информация : UTF-8 Plain Text
Заголовок : Full
Язык : English
Default : Нет
Forced : Нет

Текст #3
Идентификатор : 6
Формат : UTF-8
Идентификатор кодека : S_TEXT/UTF8
Идентификатор кодека/Информация : UTF-8 Plain Text
Заголовок : SDH
Язык : English
Default : Нет
Forced : Нет

Меню
00:00:00.000 : en:Chapter 1
00:08:45.775 : en:Chapter 2
00:13:58.170 : en:Chapter 3
00:23:04.716 : en:Chapter 4
00:28:44.347 : en:Chapter 5
00:34:52.924 : en:Chapter 6
00:39:03.049 : en:Chapter 7
00:46:35.751 : en:Chapter 8
00:51:14.863 : en:Chapter 9
00:56:59.374 : en:Chapter 10
01:00:06.269 : en:Chapter 11
01:09:57.651 : en:Chapter 12
01:16:28.166 : en:Chapter 13
01:22:11.259 : en:Chapter 14
01:27:56.646 : en:Chapter 15
01:35:54.373 : en:Chapter 16

pb.wtf



Скачать Все святые через торрент http://pic1.kartinco.top/images/11/3uhnk.jpg Скачать фильм Все святые через торрент бесплантно в хорошем качестве Описание: Фильм рассказывает правдивую историю о бывшем продавце Майкле, который стал пастырем. Его первым заданием на новом поприще ... 10 10 4
Торрент: Зарегистрирован [2018-04-14 02:13] · скачан: 65 раз
Статус: √ проверено
Размер: 1.67 GB
Как cкачать? Как скачать Все святые через торрент | UTorrent

% Раздел Тема Автор DL S | L
Фильмы [HD 720p, 1080p] (Хороший звук DUB, MVO) [ 9.51 GB ] Святые из Бундока 2: День всех святых / The Boondock Saints II: All Saints Day [2009 BDRip 1080p] [MVO] + [AVO] + 2x[VO] killermax2013 Скачать
2 | 0
Фильмы (HD 720p, 1080p) (48-60 fps) [ 3.82 GB ] Святые из Бундока 2: День всех святых / The Boondock Saints II: All Saints Day [2009 BDRip 720p многоголосый ] slaventi-69 Скачать
1 | 0
Фильмы 2009 [ 1.45 GB ] Святые из бундока 2: День всех святых / The Boondock Saints II: All Saints Day [2009 BDRip-AVC MVO] stalonе Скачать
1 | 0
Фильмы [HD 720p, 1080p] (Хороший звук DUB, MVO) [ 8.37 GB ] Все святые / All Saints [2017 BDRip 1080p] MVO [] bober100 Скачать
1 | 0
Фильмы (Blu-ray, BD-Remux, HDDVD) [ 21.05 GB ] Все святые / All Saints [2017 BD Remux 1080p] MVO [] bober100 Скачать
1 | 0
Фильмы 2009 [ 2.18 GB ] Святые из бундока 2: День всех святых / Boondock Saints II: All Saints Day The [2009 BDRip MVO] DEVI Скачать
1 | 0

28-11-2019 20:33  

Отключить всю рекламу на сайте

    Дорогой пользователь! Огромная просьба, поблагодарите релизера, оцените раздачу и оставьте свои комментарий, если Вы скачали Все святые через торрент бесплатно! Внесите свою лепту в развитие PiratBit!
    Комментировать посты могут только пользователи прошедшие не сложную регистрацию
    Показать сообщения:    

    Все святые через торрент
    Скачать бесплатно Все святые
    Все святые скачать торрент
    Все святые смотреть онлайн
    Cкачать фильм Все святые бесплатно
    Все святые скачать торрент в хорошем качестве
    Все святые смотреть онлайн бесплатно в хорошем качестве


    Вы не можете начинать темы
    Вы не можете отвечать на сообщения
    Вы не можете редактировать свои сообщения
    Вы не можете удалять свои сообщения
    Вы не можете голосовать в опросах
    Вы не можете прикреплять файлы к сообщениям
    Вы можете скачивать файлы