Ссылка на приватное зеркало нашего сайта всего за 1$. Внимание количество ограничено!!!

2 сезон

iTunes

1 сезон

1

iTunes

iTunes

iTunes

1 сезон

RePack

30

ИГРА 18+

pack

ВАЖНО

!!Акция!!

Alien_RageХит недели

RePack

MK11
pack

Забери бонус

RePack

jed

!!Акция!!

Alien_Rage

RePack

fifa19

RePack

Assassins Creed: Odyssey

RePack

NEED FOR SPEED™ PAYBACK

4 сезон

9 сезон

Бесстыжие 9 сезон

Все сериалы

все сериалы на PB.wtf

RePack

FAR CRY 5
  

Частица Вселенной / Сезон: 1 / Серии: 1-7 из 7 [2018, Драма, WEB-DLRip] pb.wtf

Частица Вселенной через торрент pb.wtf

Размер: 4.92 GB | Добавлен: 2 года 6 мес. назад | Торрент скачан:80 раз
Скачать  

14-04-2018 04:22 Частица Вселенной Скачать торрент  

Частица ВселеннойГод выпуска: 2018
Страна: Россия
Жанр: Драма
Продолжительность: ~ 00:47:00
Субтитры: отсутствуют

В ролях:

Алексей Макаров, Сергей Пускепалис, Владимир Яглыч, Виктория Исакова, Анна Михалкова, Яна Гладких, Александра Бортич, Сергей Походаев, Алексей Агранович, Яна Сексте, Казимир Лиске, Андрей Смирнов, Александр Резалин, Тимур Бадалбейли, Евгений Гришковец, Сергей Шеховцов, Елена Смирнова (IV), Микаэл Джанибекян, Сергей Юшкевич, Алёна Лаптева

Описание:

Это история о настоящих Героях. Которые живут здесь и сейчас. И на которых хочется быть похожими. Это история о настоящих Женщинах, которые умеют ждать. О людях, которые работают на космос в ЦУПе и Звёздном, на Байконуре и в институте космической медицины. Это кино о Подвиге, настоящей мужской дружбе и большой любви. О том, чего нам в этой жизни так не хватает...

Качество: WEB-DLRip
Формат: AVI

Видео: XviD, ~ 1910 Кбит/с, 720x400
Аудио: AC3, 2 ch, 192 Кбит/с
скриншот   скриншот   скриншот  

Общее
Полное имя : D:\Chastica.vselennoj.2017.WEB-DLRip.Files-x\01.Chastica.vselennoj.2017.WEB-DLRip.Files-x.avi
Формат : AVI
Формат/Информация : Audio Video Interleave
Размер файла : 1,17 Гбайт
Продолжительность : 1 ч. 19 м.
Общий поток : 2111 Кбит/сек
Программа кодирования : VirtualDubMod 1.5.10.3 | www.virtualdub-fr.org || (build 2550/release)
Библиотека кодирования : VirtualDubMod build 2550/release

Видео
Идентификатор : 0
Формат : MPEG-4 Visual
Профиль формата : Advanced Simple@L5
Параметр BVOP формата : 1
Параметр QPel формата : Нет
Параметр GMC формата : Без точки перехода
Параметр матрицы формата : Выборочная
Идентификатор кодека : XVID
Идентификатор кодека/Подсказка : XviD
Продолжительность : 1 ч. 19 м.
Битрейт : 1910 Кбит/сек
Ширина : 720 пикселей
Высота : 400 пикселей
Соотношение сторон : 16:9
Частота кадров : 25,000 кадров/сек
Цветовое пространство : YUV
Субдискретизация насыщенности : 4:2:0
Битовая глубина : 8 бит
Тип развёртки : Прогрессивная
Метод сжатия : С потерями
Бит/(Пиксели*Кадры) : 0.265
Размер потока : 1,05 Гбайт (90%)
Библиотека кодирования : XviD 73

Аудио
Идентификатор : 1
Формат : AC-3
Формат/Информация : Audio Coding 3
Расширение режима : CM (complete main)
Параметр Endianness формата : Big
Идентификатор кодека : 2000
Продолжительность : 1 ч. 19 м.
Вид битрейта : Постоянный
Битрейт : 192 Кбит/сек
Каналы : 2 канала
Расположение каналов : Front: L R
Частота : 48,0 КГц
Частота кадров : 31,250 кадров/сек (1536 spf)
Метод сжатия : С потерями
Размер потока : 109 Мбайт (9%)
Выравнивание : Разделение по промежуткам
Продолжительность промежутка : 40 мс. (1,00 видеокадр)
Время предзагрузки промежутка : 500 мс.

pb.wtf



Скачать Частица Вселенной через торрент http://c.radikal.ru/c14/1804/ee/005d01d24d23.jpg Скачать фильм Частица Вселенной через торрент бесплантно в хорошем качестве Описание: Это история о настоящих Героях. Которые живут здесь и сейчас. И на которых хочется быть похожими. Это история о настоящих ... 9.7 10 3
Торрент: Зарегистрирован [2018-04-14 04:22] · скачан: 80 раз
Статус: √ проверено
Размер: 4.92 GB
Как cкачать? Как скачать Частица Вселенной через торрент | qTorrent

% Раздел Тема Автор DL S | L
Наши сериалы [ 13.02 GB ] Частица Вселенной / Сезон: 1 / Серии: 1-7 из 7 [2018 WEB-DL 1080p] bober100 Скачать
1 | 0
Наши сериалы [ 8.83 GB ] Частица Вселенной / Сезон: 1 / Серии: 1-7 из 7 [2018 WEB-DL 720p] bober100 Скачать
1 | 0
Наши сериалы [ 15.06 GB ] Частица Вселенной / Сезон: 1 / Серии: 1-7 из 7 [2018 HDTV 1080i] bober100 Скачать
1 | 0
Наши сериалы [ 9.75 GB ] Частица Вселенной / Сезон: 1 / Серии: 1-7 из 7 [2018 HDTVRip 720p] bober100 Скачать
1 | 0
Наши сериалы [ 5.79 GB ] Частица Вселенной / Сезон: 1 / Серии: 1-7 из 7 [2018 HDTVRip-AVC] bober100 Скачать
1 | 0
Наши сериалы [ 5.28 GB ] Частица Вселенной / Сезон: 1 / Серии: 1-7 из 7 [2018 HDTVRip] bober100 Скачать
1 | 0

28-11-2019 20:33  

Отключить всю рекламу на сайте

    Дорогой пользователь! Огромная просьба, поблагодарите релизера, оцените раздачу и оставьте свои комментарий, если Вы скачали Частица Вселенной через торрент бесплатно! Внесите свою лепту в развитие PiratBit!
    Комментировать посты могут только пользователи прошедшие не сложную регистрацию
    Показать сообщения:    

    Частица Вселенной через торрент
    Скачать бесплатно Частица Вселенной
    Частица Вселенной скачать торрент
    Частица Вселенной смотреть онлайн
    Cкачать фильм Частица Вселенной бесплатно
    Частица Вселенной скачать торрент в хорошем качестве
    Частица Вселенной смотреть онлайн бесплатно в хорошем качестве


    Вы не можете начинать темы
    Вы не можете отвечать на сообщения
    Вы не можете редактировать свои сообщения
    Вы не можете удалять свои сообщения
    Вы не можете голосовать в опросах
    Вы не можете прикреплять файлы к сообщениям
    Вы можете скачивать файлы