Ссылка на приватное зеркало нашего сайта всего за 1$. Внимание количество ограничено!!!

2 сезон

iTunes

1 сезон

1

iTunes

iTunes

iTunes

1 сезон

RePack

30

ИГРА 18+

pack

ВАЖНО

!!Акция!!

Alien_RageХит недели

RePack

MK11
pack

Забери бонус

RePack

jed

!!Акция!!

Alien_Rage

RePack

fifa19

RePack

Assassins Creed: Odyssey

RePack

NEED FOR SPEED™ PAYBACK

4 сезон

9 сезон

Бесстыжие 9 сезон

Все сериалы

все сериалы на PB.wtf

RePack

FAR CRY 5
  

Частица Вселенной / Сезон: 1 / Серии: 1-7 из 7 (Алена Званцова) [2018, Драма, WEB-DL 1080p] pb.wtf

Частица Вселенной через торрент pb.wtf

Размер: 13.02 GB | Добавлен: 2 года 6 мес. назад | Торрент скачан:35 раз
Скачать  

14-04-2018 04:35 Частица Вселенной Скачать торрент  

Частица ВселеннойГод выпуска: 2018
Страна: Россия
Жанр: Драма
Продолжительность: ~ 00:47:00
Субтитры: отсутствуют

Режиссёр: Алена Званцова



В ролях:

Алексей Макаров, Сергей Пускепалис, Владимир Яглыч, Виктория Исакова, Анна Михалкова, Яна Гладких, Александра Бортич, Сергей Походаев, Алексей Агранович, Яна Сексте, Казимир Лиске, Андрей Смирнов, Александр Резалин, Тимур Бадалбейли, Евгений Гришковец, Сергей Шеховцов, Елена Смирнова (IV), Микаэл Джанибекян, Сергей Юшкевич, Алёна Лаптева

Описание:

Это история о настоящих Героях. Которые живут здесь и сейчас. И на которых хочется быть похожими. Это история о настоящих Женщинах, которые умеют ждать. О людях, которые работают на космос в ЦУПе и Звёздном, на Байконуре и в институте космической медицины. Это кино о Подвиге, настоящей мужской дружбе и большой любви. О том, чего нам в этой жизни так не хватает...

Качество: WEB-DL 1080p
Формат: MKV

Видео: MPEG-4 AVC, ~ 4800 Кбит/с, 1920x1080
Аудио: AC3, 2 ch, 192 Кбит/с
скриншот   скриншот   скриншот  

Общее
Уникальный идентификатор : 274033600663186050209493596315599295623 (0xCE28F3A47B6E02054FDA4F60D3A0D487)
Полное имя : D:\Chastica.vselennoj.2018.WEB-DL.1080..Files-x\01.Chastica.vselennoj.2018.WEB-DL.1080..Files-x.mkv
Формат : Matroska
Версия формата : Version 4 / Version 2
Размер файла : 2,70 Гбайт
Продолжительность : 1 ч. 19 м.
Режим общего битрейта : Постоянный
Общий поток : 4880 Кбит/сек
Программа кодирования : Lavf56.25.101
Библиотека кодирования : Lavf56.25.101 / Lavf56.25.101

Видео
Идентификатор : 1
Формат : AVC
Формат/Информация : Advanced Video Codec
Профиль формата : High@L4.1
Параметр CABAC формата : Да
Параметр RefFrames формата : 4 кадра
Идентификатор кодека : V_MPEG4/ISO/AVC
Продолжительность : 1 ч. 19 м.
Вид битрейта : Постоянный
Битрейт : 4800 Кбит/сек / 4800 Кбит/сек
Ширина : 1920 пикселей
Высота : 1080 пикселей
Соотношение сторон : 16:9
Режим частоты кадров : Постоянный
Частота кадров : 25,000 кадров/сек
Цветовое пространство : YUV
Субдискретизация насыщенности : 4:2:0
Битовая глубина : 8 бит
Тип развёртки : Прогрессивная
Бит/(Пиксели*Кадры) : 0.093
Размер потока : 2,54 Гбайт (94%)
Библиотека кодирования : x264 core 148
Настройки программы : cabac=1 / ref=2 / deblock=1:0:0 / analyse=0x3:0x113 / me=hex / subme=6 / psy=1 / psy_rd=1.00:0.00 / mixed_ref=1 / me_range=16 / chroma_me=1 / trellis=1 / 8x8dct=1 / cqm=0 / deadzone=21,11 / fast_pskip=1 / chroma_qp_offset=-2 / threads=1 / lookahead_threads=1 / sliced_threads=0 / nr=0 / decimate=1 / interlaced=0 / bluray_compat=0 / constrained_intra=0 / bframes=3 / b_pyramid=2 / b_adapt=1 / b_bias=0 / direct=1 / weightb=1 / open_gop=0 / weightp=1 / keyint=250 / keyint_min=25 / scenecut=0 / intra_refresh=0 / rc_lookahead=30 / rc=cbr / mbtree=1 / bitrate=4800 / ratetol=1.0 / qcomp=0.60 / qpmin=0 / qpmax=69 / qpstep=4 / vbv_maxrate=4800 / vbv_bufsize=2400 / nal_hrd=cbr / filler=1 / ip_ratio=1.40 / aq=1:1.00
Default : Да
Forced : Нет

Аудио
Идентификатор : 2
Формат : AC-3
Формат/Информация : Audio Coding 3
Расширение режима : CM (complete main)
Параметр Endianness формата : Big
Идентификатор кодека : A_AC3
Продолжительность : 1 ч. 19 м.
Вид битрейта : Постоянный
Битрейт : 192 Кбит/сек
Каналы : 2 канала
Расположение каналов : Front: L R
Частота : 48,0 КГц
Частота кадров : 31,250 кадров/сек (1536 spf)
Метод сжатия : С потерями
Задержка видео : -80 мс.
Размер потока : 109 Мбайт (4%)
Язык : English
Default : Да
Forced : Нет

pb.wtf



Скачать Частица Вселенной через торрент http://c.radikal.ru/c14/1804/ee/005d01d24d23.jpg Скачать фильм Частица Вселенной через торрент бесплантно в хорошем качестве Описание: Это история о настоящих Героях. Которые живут здесь и сейчас. И на которых хочется быть похожими. Это история о настоящих ... 10 10 3
Торрент: Зарегистрирован [2018-04-14 04:35] · скачан: 35 раз
Статус: √ проверено
Размер: 13.02 GB
Как cкачать? Как скачать Частица Вселенной через торрент | qTorrent

% Раздел Тема Автор DL S | L
Наши сериалы [ 8.83 GB ] Частица Вселенной / Сезон: 1 / Серии: 1-7 из 7 [2018 WEB-DL 720p] bober100 Скачать
1 | 0
Наши сериалы [ 4.92 GB ] Частица Вселенной / Сезон: 1 / Серии: 1-7 из 7 [2018 WEB-DLRip] bober100 Скачать
1 | 0
Наши сериалы [ 15.06 GB ] Частица Вселенной / Сезон: 1 / Серии: 1-7 из 7 [2018 HDTV 1080i] bober100 Скачать
1 | 0
Наши сериалы [ 9.75 GB ] Частица Вселенной / Сезон: 1 / Серии: 1-7 из 7 [2018 HDTVRip 720p] bober100 Скачать
1 | 0
Наши сериалы [ 5.79 GB ] Частица Вселенной / Сезон: 1 / Серии: 1-7 из 7 [2018 HDTVRip-AVC] bober100 Скачать
1 | 0
Наши сериалы [ 5.28 GB ] Частица Вселенной / Сезон: 1 / Серии: 1-7 из 7 [2018 HDTVRip] bober100 Скачать
1 | 0

28-11-2019 20:33  

Отключить всю рекламу на сайте

    Дорогой пользователь! Огромная просьба, поблагодарите релизера, оцените раздачу и оставьте свои комментарий, если Вы скачали Частица Вселенной через торрент бесплатно! Внесите свою лепту в развитие PiratBit!
    Комментировать посты могут только пользователи прошедшие не сложную регистрацию
    Показать сообщения:    

    Частица Вселенной через торрент
    Скачать бесплатно Частица Вселенной
    Частица Вселенной скачать торрент
    Частица Вселенной смотреть онлайн
    Cкачать фильм Частица Вселенной бесплатно
    Частица Вселенной скачать торрент в хорошем качестве
    Частица Вселенной смотреть онлайн бесплатно в хорошем качестве


    Вы не можете начинать темы
    Вы не можете отвечать на сообщения
    Вы не можете редактировать свои сообщения
    Вы не можете удалять свои сообщения
    Вы не можете голосовать в опросах
    Вы не можете прикреплять файлы к сообщениям
    Вы можете скачивать файлы