Ссылка на приватное зеркало нашего сайта всего за 1$. Внимание количество ограничено!!!

2 сезон

iTunes

1 сезон

1

iTunes

iTunes

iTunes

1 сезон

RePack

30

ИГРА 18+

pack

ВАЖНО

!!Акция!!

Alien_RageХит недели

RePack

MK11
pack

Забери бонус

RePack

jed

!!Акция!!

Alien_Rage

RePack

fifa19

RePack

Assassins Creed: Odyssey

RePack

NEED FOR SPEED™ PAYBACK

4 сезон

9 сезон

Бесстыжие 9 сезон

Все сериалы

все сериалы на PB.wtf

RePack

FAR CRY 5
  

Живой / Сезон: 1 / Серии: 1-16 из 16 (Михаил Кабанов (II)) [2018, Остросюжетный детектив, HDTVRip] pb.wtf

Живой через торрент pb.wtf

Размер: 9.38 GB | Добавлен: 2 года 6 мес. назад | Торрент скачан:59 раз
Скачать  

14-04-2018 04:51 Живой Скачать торрент  

ЖивойГод выпуска: 2018
Страна: Россия
Жанр: Остросюжетный детектив
Продолжительность: ~ 00:46:00
Субтитры: отсутствуют

Режиссер: Михаил Кабанов (II)



В ролях:

Кирилл Кяро, Агата Муцениеце, Маруся Зыкова, Диана Пожарская, Руслан Ягудин, Николай Козак, Александр Хованский, Дмитрий Комов

Описание:

История разворачивается вокруг журналиста популярного интернет-издания Олега Сорокина (Кирилл Кяро), который нападает на след могущественного синдиката, промышляющего убийствами самых богатых людей страны и присваивающего их состояние. Но проблема в том, что никто в его «теорию заговоров» не верит. Вычислив очередную жертву - банкира Лядова, Олег пытается предупредить его о грозящей опасности, но тщетно. Лядова взрывают в собственной машине. Олег продолжает расследование с удвоенной силой и убеждается, что в смерти банкира все очень неоднозначно. А вскоре и сам журналист становится мишенью таинственной преступной организации.

Качество: HDTVRip
Формат: AVI

Видео: XviD ~ 1 701 Кбит/с, 720x304
Аудио: AC3, 2 ch, 192 Кбит/с
скриншот   скриншот   скриншот  

Общее
Полное имя : D:\Zhivoj.2017.HDTVRip.Files-x\01.Zhivoj.2017.HDTVRip.Files-x.avi
Формат : AVI
Формат/Информация : Audio Video Interleave
Размер файла : 600 Мбайт
Продолжительность : 44 м. 5 с.
Общий поток : 1903 Кбит/сек
Программа кодирования : VirtualDubMod 1.5.10.3 | www.virtualdub-fr.org || (build 2550/release)
Библиотека кодирования : VirtualDubMod build 2550/release

Видео
Идентификатор : 0
Формат : MPEG-4 Visual
Профиль формата : Advanced Simple@L5
Параметр BVOP формата : 1
Параметр QPel формата : Нет
Параметр GMC формата : Без точки перехода
Параметр матрицы формата : Выборочная
Идентификатор кодека : XVID
Идентификатор кодека/Подсказка : XviD
Продолжительность : 44 м. 5 с.
Битрейт : 1701 Кбит/сек
Ширина : 720 пикселей
Высота : 304 пикселя
Соотношение сторон : 2,35:1
Частота кадров : 25,000 кадров/сек
Цветовое пространство : YUV
Субдискретизация насыщенности : 4:2:0
Битовая глубина : 8 бит
Тип развёртки : Прогрессивная
Метод сжатия : С потерями
Бит/(Пиксели*Кадры) : 0.311
Размер потока : 536 Мбайт (89%)
Библиотека кодирования : XviD 73

Аудио
Идентификатор : 1
Формат : AC-3
Формат/Информация : Audio Coding 3
Расширение режима : CM (complete main)
Параметр Endianness формата : Big
Идентификатор кодека : 2000
Продолжительность : 44 м. 5 с.
Вид битрейта : Постоянный
Битрейт : 192 Кбит/сек
Каналы : 2 канала
Расположение каналов : Front: L R
Частота : 48,0 КГц
Частота кадров : 31,250 кадров/сек (1536 spf)
Метод сжатия : С потерями
Размер потока : 60,6 Мбайт (10%)
Выравнивание : Разделение по промежуткам
Продолжительность промежутка : 40 мс. (1,00 видеокадр)
Время предзагрузки промежутка : 500 мс.

pb.wtf



Скачать Живой через торрент http://i101.fastpic.ru/big/2018/0404/5e/c5cf2850e992dd557b730a1b8a40305e.jpg Скачать фильм Живой через торрент бесплантно в хорошем качестве Описание: История разворачивается вокруг журналиста популярного интернет-издания Олега Сорокина (Кирилл Кяро), который нападает на след ... 10 10 2
Торрент: Зарегистрирован [2018-04-14 04:51] · скачан: 59 раз
Статус: √ проверено
Размер: 9.38 GB
Как cкачать? Как скачать Живой через торрент | qTorrent

% Раздел Тема Автор DL S | L
Наши сериалы [ 37.69 GB ] Живой / Сезон: 1 / Серии: 1-16 из 16 [2017 HDTV 1080p] [Русский] R.G.Generalfilm White Smoke Скачать
1 | 0
Наши сериалы [ 8.7 GB ] Живой / Сезон: 1 / Серии: 1-16 из 16 ) [2018 Остросюжетный WEBRip] bober100 Скачать
2 | 0
Наши сериалы [ 33.35 GB ] Живой / Сезон: 1 / Серии: 1-16 из 16 ) [2018 Остросюжетный WEB-DL 1080p] bober100 Скачать
1 | 0
Наши сериалы [ 11.85 GB ] Живой / Сезон: 1 / Серии: 1-16 из 16 ) [2018 Остросюжетный HDTVRip-AVC] bober100 Скачать
1 | 0
Зарубежные сериалы [ 5.29 GB ] Живые и мертвые / The Living And The Dead / Сезон: 1 / Серии 1-6 из 6 [2016 WEB-DLRip-AVC] MVO [BaibaKo] GEKADOL Скачать
1 | 0
Остаться в Живых (LOST) [ 5.87 GB ] Остаться в живых / Lost [2009 HDTVRip] Rainy Скачать
1 | 0

28-11-2019 20:33  

Отключить всю рекламу на сайте

    Дорогой пользователь! Огромная просьба, поблагодарите релизера, оцените раздачу и оставьте свои комментарий, если Вы скачали Живой через торрент бесплатно! Внесите свою лепту в развитие PiratBit!
    Комментировать посты могут только пользователи прошедшие не сложную регистрацию
    Показать сообщения:    

    Живой через торрент
    Скачать бесплатно Живой
    Живой скачать торрент
    Живой смотреть онлайн
    Cкачать фильм Живой бесплатно
    Живой скачать торрент в хорошем качестве
    Живой смотреть онлайн бесплатно в хорошем качестве


    Вы не можете начинать темы
    Вы не можете отвечать на сообщения
    Вы не можете редактировать свои сообщения
    Вы не можете удалять свои сообщения
    Вы не можете голосовать в опросах
    Вы не можете прикреплять файлы к сообщениям
    Вы можете скачивать файлы