Доктор Стрэндж

Лицензия

Добыча

MVO

Дом дракона

1 сезон

Тор

Лицензия

Мэверик

Лицензия

Там, где раки поют

MVO

Властелин колец

1 сезон

Ultimate

pack

Рекомендуем

30

Repack

ВАЖНО

ВАЖНО

Ghostwire

RePack

jed

RePack

nioh2

RePack

RDR2

RePack

NEED FOR SPEED™ PAYBACK

RePack

скачать торрент

Кинопоиск HD

Острые козырьки 6 сезон

6 сезон

FAR CRY 6

RePack

скачать торрент

Лицензия

скачать торрент

MVO

1

1 сезон

скачать торрент

1 сезон

скачать торрент

Лицензия

  

Живой / Сезон: 1 / Серии: 1-16 из 16 (Михаил Кабанов (II)) [2018, Остросюжетный детектив, HDTVRip-AVC]

Живой через торрент pb.wtf

Размер: 11.85 GB | Добавлен: 4 года 5 мес. назад | Торрент скачан:83 раза
Смотреть онлайн | Скачать   

14-04-2018 05:10 Живой Скачать торрент  

ЖивойГод выпуска: 2018
Страна: Россия
Жанр: Остросюжетный детектив
Продолжительность: ~ 00:46:00
Субтитры: отсутствуют

Режиссер: Михаил Кабанов (II)



В ролях:

Кирилл Кяро, Агата Муцениеце, Маруся Зыкова, Диана Пожарская, Руслан Ягудин, Николай Козак, Александр Хованский, Дмитрий Комов

Описание:

История разворачивается вокруг журналиста популярного интернет-издания Олега Сорокина (Кирилл Кяро), который нападает на след могущественного синдиката, промышляющего убийствами самых богатых людей страны и присваивающего их состояние. Но проблема в том, что никто в его «теорию заговоров» не верит. Вычислив очередную жертву - банкира Лядова, Олег пытается предупредить его о грозящей опасности, но тщетно. Лядова взрывают в собственной машине. Олег продолжает расследование с удвоенной силой и убеждается, что в смерти банкира все очень неоднозначно. А вскоре и сам журналист становится мишенью таинственной преступной организации.

Качество: HDTVRip-AVC
Формат: MKV

Видео: MPEG-4 AVC, ~ 2000 Кбит/с, 1024x432, 25 кадр/с
Аудио: AC3, 2 ch, 192 Кбит/с
скриншот   скриншот   скриншот  

Общее
Уникальный идентификатор : 202438109624119839282475567747587048026 (0x984C29668C8C6A6AA5BBBD205F17025A)
Полное имя : D:\Zhivoj.(2017).HDTVRip.(AVC).Files-x\01.Zhivoj.(2017).HDTVRip.(AVC).by.Серый1779.Files-x.mkv
Формат : Matroska
Версия формата : Version 2
Размер файла : 692 Мбайт
Продолжительность : 44 м. 5 с.
Общий поток : 2194 Кбит/сек
Дата кодирования : UTC 2018-04-02 22:04:48
Программа кодирования : mkvmerge v7.8.0 ('River Man') 32bit built on Apr 3 2015 12:11:22
Библиотека кодирования : libebml v1.3.1 + libmatroska v1.4.2

Видео
Идентификатор : 1
Формат : AVC
Формат/Информация : Advanced Video Codec
Профиль формата : [email protected]
Параметр CABAC формата : Да
Параметр RefFrames формата : 9 кадров
Идентификатор кодека : V_MPEG4/ISO/AVC
Продолжительность : 44 м. 5 с.
Битрейт : 2000 Кбит/сек
Ширина : 1024 пикселя
Высота : 432 пикселя
Соотношение сторон : 2,40:1
Режим частоты кадров : Постоянный
Частота кадров : 25,000 кадров/сек
Цветовое пространство : YUV
Субдискретизация насыщенности : 4:2:0
Битовая глубина : 8 бит
Тип развёртки : Прогрессивная
Бит/(Пиксели*Кадры) : 0.181
Размер потока : 618 Мбайт (89%)
Библиотека кодирования : x264 core 146 r2538 121396c
Настройки программы : cabac=1 / ref=9 / deblock=1:-2:-1 / analyse=0x3:0x133 / me=umh / subme=9 / psy=1 / psy_rd=1.00:0.15 / mixed_ref=1 / me_range=32 / chroma_me=1 / trellis=2 / 8x8dct=1 / cqm=0 / deadzone=21,11 / fast_pskip=0 / chroma_qp_offset=-3 / threads=18 / lookahead_threads=3 / sliced_threads=0 / nr=0 / decimate=1 / interlaced=0 / bluray_compat=0 / constrained_intra=0 / bframes=9 / b_pyramid=2 / b_adapt=2 / b_bias=0 / direct=1 / weightb=1 / open_gop=0 / weightp=2 / keyint=250 / keyint_min=25 / scenecut=40 / intra_refresh=0 / rc=2pass / mbtree=0 / bitrate=2000 / ratetol=1.0 / qcomp=0.60 / qpmin=0 / qpmax=69 / qpstep=4 / cplxblur=20.0 / qblur=0.5 / ip_ratio=1.40 / pb_ratio=1.30 / aq=2:1.00
Default : Да
Forced : Нет
Цветовой диапазон : Limited
Основные цвета : BT.709
Характеристики трансфера : BT.709
Коэффициенты матрицы : BT.709

Аудио
Идентификатор : 2
Формат : AC-3
Формат/Информация : Audio Coding 3
Расширение режима : CM (complete main)
Параметр Endianness формата : Big
Идентификатор кодека : A_AC3
Продолжительность : 44 м. 5 с.
Вид битрейта : Постоянный
Битрейт : 192 Кбит/сек
Каналы : 2 канала
Расположение каналов : Front: L R
Частота : 48,0 КГц
Частота кадров : 31,250 кадров/сек (1536 spf)
Метод сжатия : С потерями
Размер потока : 60,6 Мбайт (9%)
Default : Да




Скачать Живой через торрент http://i101.fastpic.ru/big/2018/0404/5e/c5cf2850e992dd557b730a1b8a40305e.jpg Скачать, смотреть онлайн Живой бесплантно в хорошем качестве Описание: История разворачивается вокруг журналиста популярного интернет-издания Олега Сорокина (Кирилл Кяро), который нападает на след ... 9.2 10 6
Info! Серебряная раздача, засчитывается только 50% скачанного.
Торрент: Зарегистрирован [2018-04-14 05:10] · скачан: 83 раз
Статус: √ проверено
Размер: 11.85 GB
Как cкачать? Как скачать Живой через торрент | UTorrent

% Раздел Тема Автор DL S | L
Фильмы с авторской озвучкой [ 10.53 GB ] Женщины за решёткой 2 / Chained Heat II | AVO | 1080p Леонид Ильич Скачать
1 | 0
Наши сериалы [ 7.35 GB ] Живая мина / Сезон: 1 / Серии: 1-10 из 10 | | WEBRip-AVC bober100 Скачать
1 | 0
Наши сериалы [ 14.06 GB ] Живая мина / Сезон: 1 / Серии: 1-10 из 10 | | 720p bober100 Скачать
1 | 0
Наши сериалы [ 20.61 GB ] Живая мина / Сезон: 1 / Серии: 1-10 из 10 | | 1080p bober100 Скачать
1 | 0
Наши сериалы [ 6.83 GB ] Живая мина / Сезон: 1 / Серии: 1-10 из 10 | | DLRip bober100 Скачать
1 | 0
Наши сериалы [ 6.08 GB ] Живая мина / Сезон: 1 / Серии: 1-10 из 10 | | SATRip bober100 Скачать
1 | 0
Фильмы 2017 [DVDrip, WEB-DLRip, HDrip] (DUB, MVO) [ 4.24 GB ] Звездные войны: Последние джедаи / Star Wars: Episode VIII - The Last Jedi | AVO | BDRip-AVC killermax2013 Скачать
1 | 0

28-11-2019 20:33  


Отключить вcю реклaмy на сайте, в т.ч. и в плеере онлайн просмотра!

    Дорогой пользователь! Огромная просьба, поблагодарите релизера, оцените раздачу и оставьте свои комментарий, если Вы скачали Живой через торрент бесплатно!!
    Комментировать посты могут только пользователи прошедшие не сложную регистрацию
    Показать сообщения:    


    Живой через торрент
    Скачать бесплатно Живой
    Живой скачать торрент
    Живой смотреть онлайн
    Cкачать фильм Живой бесплатно
    Живой скачать торрент в хорошем качестве
    Живой смотреть онлайн бесплатно в хорошем качестве
    Вы не можете начинать темы
    Вы не можете отвечать на сообщения
    Вы не можете редактировать свои сообщения
    Вы не можете удалять свои сообщения
    Вы не можете голосовать в опросах
    Вы не можете прикреплять файлы к сообщениям
    Вы можете скачивать файлы