Ссылка на приватное зеркало нашего сайта всего за 1$. Внимание количество ограничено!!!

2 сезон

iTunes

1 сезон

1

iTunes

iTunes

iTunes

1 сезон

RePack

30

ИГРА 18+

pack

ВАЖНО

!!Акция!!

Alien_RageХит недели

RePack

MK11
pack

Забери бонус

RePack

jed

!!Акция!!

Alien_Rage

RePack

fifa19

RePack

Assassins Creed: Odyssey

RePack

NEED FOR SPEED™ PAYBACK

4 сезон

9 сезон

Бесстыжие 9 сезон

Все сериалы

все сериалы на PB.wtf

RePack

FAR CRY 5
  

Найти мужа Дарье Климовой / Серии: 1-4 из 4 (Иван Мережко) [2016, Мелодрама, комедия, SATRip] pb.wtf

Найти мужа Дарье Климовой через торрент pb.wtf

Размер: 2.66 GB | Добавлен: 2 года 6 мес. назад | Торрент скачан:48 раз
Скачать  

14-04-2018 11:00 Найти мужа Дарье Климовой Скачать торрент  

Найти мужа Дарье КлимовойГод выпуска: 2016
Страна: Россия
Жанр: Мелодрама, комедия
Продолжительность: ~ 00:50:00
Субтитры: отсутствуют

Режиссер: Иван Мережко



В ролях:

Максим Леонидов, Николай Фоменко, Людмила Свитова, Екатерина Гусева, Николай Добрынин, Александра Булычёва, Алексей Федькин, Маргарита Бычкова, Наталья Круглова

Описание:

В 40 лет у банкирши Дарьи Климовой есть полный набор материальных благ, не хватает лишь нормальной личной жизни. На сайте знакомств под видом эстрадной певицы Клавы она знакомится с музыкантом Дэном. Договорившись о встрече, Дарья вместо себя отправляет свою секретаршу: невзрачную Лиду. Так же поступает и Дэн, отправив на свидание своего коллегу Фила. Как ни странно, Лида и Фил нравятся друг другу, и между ними завязывается роман...

Качество: SATRip
Формат: AVI

Видео: XviD, 1800 Кбит/с, 704x448
Аудио: AC3, 2 ch, 192 Кбит/с
скриншот   скриншот   скриншот  

Общее
Полное имя : E:\НАЙТИ МУЖА ДАРЬЕ КЛИМОВОЙ\Nayti.Muzha.Darye.Klimovoy.01.SATRip..avi
Формат : AVI
Формат/Информация : Audio Video Interleave
Размер файла : 860 Мбайт
Продолжительность : 1 ч. 0 м.
Общий поток : 2002 Кбит/сек
Программа кодирования : VirtualDubMod 1.5.10.3 | www.virtualdub-fr.org || (build 2550/release)
Библиотека кодирования : VirtualDubMod build 2550/release

Видео
Идентификатор : 0
Формат : MPEG-4 Visual
Профиль формата : Advanced Simple@L5
Настройки формата : BVOP2
Параметр BVOP формата : 2
Параметр QPel формата : Нет
Параметр GMC формата : Без точки перехода
Параметр матрицы формата : Default (H.263)
Идентификатор кодека : XVID
Идентификатор кодека/Подсказка : XviD
Продолжительность : 1 ч. 0 м.
Битрейт : 1800 Кбит/сек
Ширина : 704 пикселя
Высота : 448 пикселей
Соотношение сторон : 16:10
Частота кадров : 25,000 кадров/сек
Цветовое пространство : YUV
Субдискретизация насыщенности : 4:2:0
Битовая глубина : 8 бит
Тип развёртки : Прогрессивная
Метод сжатия : С потерями
Бит/(Пиксели*Кадры) : 0.228
Размер потока : 773 Мбайт (90%)
Библиотека кодирования : XviD 1.2.1 (UTC 2008-12-04)

Аудио
Идентификатор : 1
Формат : AC-3
Формат/Информация : Audio Coding 3
Идентификатор кодека : 2000
Продолжительность : 1 ч. 0 м.
Вид битрейта : Постоянный
Битрейт : 192 Кбит/сек
Каналы : 2 канала
Расположение каналов : Front: L R
Частота : 48,0 КГц
Частота кадров : 31,250 кадров/сек (1536 SPF)
Битовая глубина : 16 бит
Метод сжатия : С потерями
Размер потока : 82,5 Мбайт (10%)
Выравнивание : Разделение по промежуткам
Продолжительность промежутка : 40 мс. (1,00 видеокадр)
Время предзагрузки промежутка : 500 мс.
ServiceKind/String : Complete Main

pb.wtf



Скачать Найти мужа Дарье Климовой через торрент http://img12.lostpic.net/2018/04/14/eb4694f879681d1894de136d777fa11c.jpg Скачать фильм Найти мужа Дарье Климовой через торрент бесплантно в хорошем качестве Описание: В 40 лет у банкирши Дарьи Климовой есть полный набор материальных благ, не хватает лишь нормальной личной жизни. На сайте ... 10 10 4
Торрент: Зарегистрирован [2018-04-14 11:00] · скачан: 48 раз
Статус: √ проверено
Размер: 2.66 GB
Как cкачать? Как скачать Найти мужа Дарье Климовой через торрент | qTorrent

% Раздел Тема Автор DL S | L
Наши сериалы [ 2.47 GB ] Найти мужа Дарье Климовой / Серии: 1-4 из 4 [2016 SATRip-AVC] aleksan55 Скачать
1 | 0
Наши сериалы [ 8.81 GB ] Найти мужа Дарье Климовой / Серии: 1-4 из 4 [2016 Мело HDTV 1080i] bober100 Скачать
1 | 0
Наши сериалы [ 2.75 GB ] Найти мужа Дарье Климовой / Серии: 1-4 из 4 [2016 Мело HDTVRip] bober100 Скачать
1 | 0

28-11-2019 20:33  

Отключить всю рекламу на сайте

    Дорогой пользователь! Огромная просьба, поблагодарите релизера, оцените раздачу и оставьте свои комментарий, если Вы скачали Найти мужа Дарье Климовой через торрент бесплатно! Внесите свою лепту в развитие PiratBit!
    Комментировать посты могут только пользователи прошедшие не сложную регистрацию
    Показать сообщения:    

    Найти мужа Дарье Климовой через торрент
    Скачать бесплатно Найти мужа Дарье Климовой
    Найти мужа Дарье Климовой скачать торрент
    Найти мужа Дарье Климовой смотреть онлайн
    Cкачать фильм Найти мужа Дарье Климовой бесплатно
    Найти мужа Дарье Климовой скачать торрент в хорошем качестве
    Найти мужа Дарье Климовой смотреть онлайн бесплатно в хорошем качестве


    Вы не можете начинать темы
    Вы не можете отвечать на сообщения
    Вы не можете редактировать свои сообщения
    Вы не можете удалять свои сообщения
    Вы не можете голосовать в опросах
    Вы не можете прикреплять файлы к сообщениям
    Вы можете скачивать файлы