Ссылка на приватное зеркало нашего сайта всего за 1$. Внимание количество ограничено!!!

2 сезон

iTunes

1 сезон

1

iTunes

iTunes

iTunes

1 сезон

RePack

30

ИГРА 18+

pack

ВАЖНО

!!Акция!!

Alien_RageХит недели

RePack

MK11
pack

Забери бонус

RePack

jed

!!Акция!!

Alien_Rage

RePack

fifa19

RePack

Assassins Creed: Odyssey

RePack

NEED FOR SPEED™ PAYBACK

4 сезон

9 сезон

Бесстыжие 9 сезон

Все сериалы

все сериалы на PB.wtf

RePack

FAR CRY 5
  

Живой / Сезон: 1 / Серии: 1-16 из 16 (Михаил Кабанов (II)) [2018, Остросюжетный детектив, WEBRip] pb.wtf

Живой через торрент pb.wtf

Раздают: 1 [ 4 KB/s ]
Размер: 8.7 GB | Добавлен: 2 года 6 мес. назад | Торрент скачан:258 раз
Скачать  

14-04-2018 12:57 Живой Скачать торрент  

ЖивойГод выпуска: 2018
Страна: Россия
Жанр: Остросюжетный детектив
Продолжительность: ~ 00:46:00
Субтитры: отсутствуют

Режиссер: Михаил Кабанов (II)



В ролях:

Кирилл Кяро, Агата Муцениеце, Маруся Зыкова, Диана Пожарская, Руслан Ягудин, Николай Козак, Александр Хованский, Дмитрий Комов

Описание:

История разворачивается вокруг журналиста популярного интернет-издания Олега Сорокина (Кирилл Кяро), который нападает на след могущественного синдиката, промышляющего убийствами самых богатых людей страны и присваивающего их состояние. Но проблема в том, что никто в его «теорию заговоров» не верит. Вычислив очередную жертву - банкира Лядова, Олег пытается предупредить его о грозящей опасности, но тщетно. Лядова взрывают в собственной машине. Олег продолжает расследование с удвоенной силой и убеждается, что в смерти банкира все очень неоднозначно. А вскоре и сам журналист становится мишенью таинственной преступной организации.

Качество: WEBRip
Формат: AVI

Видео: XviD build 73, 720x304 (2.35:1), 25.000 fps, ~ 1600 Kbps (~ 0.260 bit/pixel)
Аудио: 48.0 kHz, MP3, 2/0 ch, 128 kbps
скриншот   скриншот   скриншот   скриншот   скриншот  

Общее
Полное имя : D:\Zhivoj.2017.XviD.WEBRip.GeneralFilm\Zhivoj.e01.avi
Формат : AVI
Формат/Информация : Audio Video Interleave
Размер файла : 556 Мбайт
Продолжительность : 44 м. 35 с.
Общий поток : 1745 Кбит/сек
Программа кодирования : VirtualDubMod 1.5.10.3 | www.virtualdub-fr.org || (build 2550/release)
Библиотека кодирования : VirtualDubMod build 2550/release

Видео
Идентификатор : 0
Формат : MPEG-4 Visual
Профиль формата : Advanced Simple@L5
Параметр BVOP формата : 1
Параметр QPel формата : Нет
Параметр GMC формата : Без точки перехода
Параметр матрицы формата : Default (H.263)
Идентификатор кодека : XVID
Идентификатор кодека/Подсказка : XviD
Продолжительность : 44 м. 35 с.
Битрейт : 1607 Кбит/сек
Ширина : 720 пикселей
Высота : 304 пикселя
Соотношение сторон : 2,35:1
Частота кадров : 25,000 кадров/сек
Цветовое пространство : YUV
Субдискретизация насыщенности : 4:2:0
Битовая глубина : 8 бит
Тип развёртки : Прогрессивная
Метод сжатия : С потерями
Бит/(Пиксели*Кадры) : 0.294
Размер потока : 513 Мбайт (92%)
Библиотека кодирования : XviD 73

Аудио
Идентификатор : 1
Формат : MPEG Audio
Версия формата : Version 1
Профиль формата : Layer 3
Идентификатор кодека : 55
Идентификатор кодека/Подсказка : MP3
Продолжительность : 44 м. 35 с.
Вид битрейта : Постоянный
Битрейт : 128 Кбит/сек
Каналы : 2 канала
Частота : 48,0 КГц
Метод сжатия : С потерями
Размер потока : 40,8 Мбайт (7%)
Выравнивание : Соединение по промежуткам
Продолжительность промежутка : 40 мс. (1,00 видеокадр)
Время предзагрузки промежутка : 504 мс.
Библиотека кодирования : LAME3.99r
Настройки программы : -m s -V 4 -q 0 -lowpass 17 -b 128

pb.wtf



Скачать Живой через торрент http://i101.fastpic.ru/big/2018/0404/5e/c5cf2850e992dd557b730a1b8a40305e.jpg Скачать фильм Живой через торрент бесплантно в хорошем качестве Описание: История разворачивается вокруг журналиста популярного интернет-издания Олега Сорокина (Кирилл Кяро), который нападает на след ... 8.8 10 5
Торрент: Зарегистрирован [2018-04-14 12:57] · скачан: 258 раз
Статус: √ проверено
Размер: 8.7 GB
Как cкачать? Как скачать Живой через торрент | qTorrent

% Раздел Тема Автор DL S | L
Наши сериалы [ 37.69 GB ] Живой / Сезон: 1 / Серии: 1-16 из 16 [2017 HDTV 1080p] [Русский] R.G.Generalfilm White Smoke Скачать
1 | 0
Наши сериалы [ 33.35 GB ] Живой / Сезон: 1 / Серии: 1-16 из 16 ) [2018 Остросюжетный WEB-DL 1080p] bober100 Скачать
1 | 0
Наши сериалы [ 11.85 GB ] Живой / Сезон: 1 / Серии: 1-16 из 16 ) [2018 Остросюжетный HDTVRip-AVC] bober100 Скачать
1 | 0
Наши сериалы [ 9.38 GB ] Живой / Сезон: 1 / Серии: 1-16 из 16 ) [2018 Остросюжетный HDTVRip] bober100 Скачать
1 | 0
Зарубежные сериалы [ 5.29 GB ] Живые и мертвые / The Living And The Dead / Сезон: 1 / Серии 1-6 из 6 [2016 WEB-DLRip-AVC] MVO [BaibaKo] GEKADOL Скачать
1 | 1
Остаться в Живых (LOST) [ 5.87 GB ] Остаться в живых / Lost [2009 HDTVRip] Rainy Скачать
1 | 0

28-11-2019 20:33  

Отключить всю рекламу на сайте

16-04-2018 05:09 Живой Скачать торрент  

Очень мне сериал понравился. Сделан на уровне. Рекомендую. Спасибо.pb.wtf



    Дорогой пользователь! Огромная просьба, поблагодарите релизера, оцените раздачу и оставьте свои комментарий, если Вы скачали Живой через торрент бесплатно! Внесите свою лепту в развитие PiratBit!
    Комментировать посты могут только пользователи прошедшие не сложную регистрацию
    Показать сообщения:    

    Живой через торрент
    Скачать бесплатно Живой
    Живой скачать торрент
    Живой смотреть онлайн
    Cкачать фильм Живой бесплатно
    Живой скачать торрент в хорошем качестве
    Живой смотреть онлайн бесплатно в хорошем качестве


    Вы не можете начинать темы
    Вы не можете отвечать на сообщения
    Вы не можете редактировать свои сообщения
    Вы не можете удалять свои сообщения
    Вы не можете голосовать в опросах
    Вы не можете прикреплять файлы к сообщениям
    Вы можете скачивать файлы