Ссылка на приватное зеркало нашего сайта всего за 1$. Внимание количество ограничено!!!

2 сезон

iTunes

1 сезон

1

iTunes

iTunes

iTunes

1 сезон

RePack

30

ИГРА 18+

pack

ВАЖНО

!!Акция!!

Alien_RageХит недели

RePack

MK11
pack

Забери бонус

RePack

jed

!!Акция!!

Alien_Rage

RePack

fifa19

RePack

Assassins Creed: Odyssey

RePack

NEED FOR SPEED™ PAYBACK

4 сезон

9 сезон

Бесстыжие 9 сезон

Все сериалы

все сериалы на PB.wtf

RePack

FAR CRY 5
  

Живой / Сезон: 1 / Серии: 1-16 из 16 (Михаил Кабанов (II)) [2018, Остросюжетный детектив, WEB-DL 1080p] pb.wtf

Живой через торрент pb.wtf

Размер: 33.35 GB | Добавлен: 2 года 6 мес. назад | Торрент скачан:55 раз
Скачать  

14-04-2018 14:18 Живой Скачать торрент  

ЖивойГод выпуска: 2018
Страна: Россия
Жанр: Остросюжетный детектив
Продолжительность: ~ 00:46:00
Субтитры: отсутствуют

Режиссер: Михаил Кабанов (II)



В ролях:

Кирилл Кяро, Агата Муцениеце, Маруся Зыкова, Диана Пожарская, Руслан Ягудин, Николай Козак, Александр Хованский, Дмитрий Комов

Описание:

История разворачивается вокруг журналиста популярного интернет-издания Олега Сорокина (Кирилл Кяро), который нападает на след могущественного синдиката, промышляющего убийствами самых богатых людей страны и присваивающего их состояние. Но проблема в том, что никто в его «теорию заговоров» не верит. Вычислив очередную жертву - банкира Лядова, Олег пытается предупредить его о грозящей опасности, но тщетно. Лядова взрывают в собственной машине. Олег продолжает расследование с удвоенной силой и убеждается, что в смерти банкира все очень неоднозначно. А вскоре и сам журналист становится мишенью таинственной преступной организации.

Качество: WEB-DL 1080p
Формат: MKV

Видео: MPEG-4 AVC, ~ 6000 Кбит/с, 1920x1080
Аудио: AC3, 2 ch, 192 Кбит/с
скриншот   скриншот   скриншот  

Общее
Уникальный идентификатор : 234876290359599976321998341340752357077 (0xB0B3873072CCB27D9D042F702985A6D5)
Полное имя : D:\Zhivoj.2017.WEB-DL.(1080p).Nikolspup\Zhivoj.(01.seriya).2017.WEB-DL.(1080p).Nikolspup.mkv
Формат : Matroska
Версия формата : Version 4 / Version 2
Размер файла : 1,91 Гбайт
Продолжительность : 44 м. 35 с.
Режим общего битрейта : Постоянный
Общий поток : 6149 Кбит/сек
Дата кодирования : UTC 2018-04-02 19:10:53
Программа кодирования : mkvmerge v7.8.0 ('River Man') 32bit built on Mar 27 2015 16:18:02
Библиотека кодирования : libebml v1.3.1 + libmatroska v1.4.2

Видео
Идентификатор : 1
Формат : AVC
Формат/Информация : Advanced Video Codec
Профиль формата : High@L4.1
Параметр CABAC формата : Нет
Параметр RefFrames формата : 2 кадра
Идентификатор кодека : V_MPEG4/ISO/AVC
Продолжительность : 44 м. 35 с.
Вид битрейта : Постоянный
Битрейт : 6000 Кбит/сек
Ширина : 1920 пикселей
Высота : 1080 пикселей
Соотношение сторон : 16:9
Режим частоты кадров : Постоянный
Частота кадров : 25,000 кадров/сек
Стандарт вещания : PAL
Цветовое пространство : YUV
Субдискретизация насыщенности : 4:2:0
Битовая глубина : 8 бит
Тип развёртки : Прогрессивная
Бит/(Пиксели*Кадры) : 0.116
Размер потока : 1,85 Гбайт (97%)
Default : Нет
Forced : Нет
Цветовой диапазон : Limited
Основные цвета : BT.709
Характеристики трансфера : BT.709
Коэффициенты матрицы : BT.709

Аудио
Идентификатор : 2
Формат : AC-3
Формат/Информация : Audio Coding 3
Расширение режима : CM (complete main)
Параметр Endianness формата : Big
Идентификатор кодека : A_AC3
Продолжительность : 44 м. 35 с.
Вид битрейта : Постоянный
Битрейт : 192 Кбит/сек
Каналы : 2 канала
Расположение каналов : Front: L R
Частота : 48,0 КГц
Частота кадров : 31,250 кадров/сек (1536 spf)
Метод сжатия : С потерями
Размер потока : 61,2 Мбайт (3%)
Язык : Russian
Default : Да
Forced : Да

pb.wtf



Скачать Живой через торрент http://i101.fastpic.ru/big/2018/0404/5e/c5cf2850e992dd557b730a1b8a40305e.jpg Скачать фильм Живой через торрент бесплантно в хорошем качестве Описание: История разворачивается вокруг журналиста популярного интернет-издания Олега Сорокина (Кирилл Кяро), который нападает на след ... 10 10 2
Торрент: Зарегистрирован [2018-04-14 14:18] · скачан: 55 раз
Статус: √ проверено
Размер: 33.35 GB
Как cкачать? Как скачать Живой через торрент | qTorrent

% Раздел Тема Автор DL S | L
Наши сериалы [ 37.69 GB ] Живой / Сезон: 1 / Серии: 1-16 из 16 [2017 HDTV 1080p] [Русский] R.G.Generalfilm White Smoke Скачать
1 | 1
Наши сериалы [ 8.7 GB ] Живой / Сезон: 1 / Серии: 1-16 из 16 ) [2018 Остросюжетный WEBRip] bober100 Скачать
1 | 0
Наши сериалы [ 11.85 GB ] Живой / Сезон: 1 / Серии: 1-16 из 16 ) [2018 Остросюжетный HDTVRip-AVC] bober100 Скачать
1 | 0
Наши сериалы [ 9.38 GB ] Живой / Сезон: 1 / Серии: 1-16 из 16 ) [2018 Остросюжетный HDTVRip] bober100 Скачать
1 | 0
Зарубежные сериалы [ 5.29 GB ] Живые и мертвые / The Living And The Dead / Сезон: 1 / Серии 1-6 из 6 [2016 WEB-DLRip-AVC] MVO [BaibaKo] GEKADOL Скачать
1 | 0
Остаться в Живых (LOST) [ 5.87 GB ] Остаться в живых / Lost [2009 HDTVRip] Rainy Скачать
1 | 0

28-11-2019 20:33  

Отключить всю рекламу на сайте

15-04-2018 14:46 Живой Скачать торрент  

Вот нахрена Лядову, которому сделали пластику, в последних сериях на бошку натянули шерстяную ниточку от уха до уха?! )))
Ну очень дешевая имитация шрама! )))pb.wtf



    Дорогой пользователь! Огромная просьба, поблагодарите релизера, оцените раздачу и оставьте свои комментарий, если Вы скачали Живой через торрент бесплатно! Внесите свою лепту в развитие PiratBit!
    Комментировать посты могут только пользователи прошедшие не сложную регистрацию
    Показать сообщения:    

    Живой через торрент
    Скачать бесплатно Живой
    Живой скачать торрент
    Живой смотреть онлайн
    Cкачать фильм Живой бесплатно
    Живой скачать торрент в хорошем качестве
    Живой смотреть онлайн бесплатно в хорошем качестве


    Вы не можете начинать темы
    Вы не можете отвечать на сообщения
    Вы не можете редактировать свои сообщения
    Вы не можете удалять свои сообщения
    Вы не можете голосовать в опросах
    Вы не можете прикреплять файлы к сообщениям
    Вы можете скачивать файлы