2 сезон

iTunes

MVO

1

2 сезон

iTunes

iTunes

1 сезон

RePack

30

Новинка

ВАЖНО

ИГРА 18+

pack

RePack

MK11
pack

Легкие деньги

RePack

jed

RePack

fifa19

RePack

RDR2

RePack

NEED FOR SPEED™ PAYBACK

4 сезон

9 сезон

Бесстыжие 9 сезон

Все сериалы

все сериалы на PB.wtf

RePack

FAR CRY 5

Anonymous, добрый вечер, мы не успеваем собрать деньги на оплату серверов за декабрь и январь, помогите нам пожалуйста в это трудное время. В качестве благодарности мы отключим Вам всю рекламу на сайте (укажите свой ник в строку Ваше имя)!

×
  
Magnet ссылка

Оно приходит ночью / It Comes at Night (Трей Эдвард Шульц) [2017 г., Ужасы, детектив, драма, HDRip, КПК] Dub [Лицензия] pb.wtf

Оно приходит ночью через торрент pb.wtf

Размер: 348 MB | Добавлен: 2 года 9 мес. назад | Торрент скачан:23 раза
Скачать  

14-04-2018 15:25 Оно приходит ночью Скачать торрент  

Оно приходит ночью / It Comes at Night

Год выпуска: 2017
Страна: США
Жанр: Ужасы, детектив, драма
Продолжительность: 01:31:36
Перевод: Дубляж [Лицензия]

Режиссер

Трей Эдвард Шульц

rating

В ролях

Джоэл Эдгертон, Кристофер Эбботт, Кармен Эджого, Райли Кио, Келвин Харрисон, Гриффин Роберт Фолкнер, Дэвид Пендлтон, Мики, Чейз Джолиет, Мик О’Рурк.

Описание

Цивилизацию поражает зловещая эпидемия, превращающая инфицированных в чудовищных монстров. Мир погружается в невыносимый ужас. Спасаясь от гибели, отец прячет свою семью в заброшенном доме в чаще леса. Однажды на пороге дома появляются незнакомцы. Но как спастись от безумия, когда ад внутри тебя?..

Качество: HDRip
Формат: MP4
Видео кодек: AVC
Аудио кодек: AAC LC

Видео: Н.264, 640x264 (2.40:1), 23.976 fps, 400 Kbps
Аудио: AAC LC, 48.0 KHz, 2 ch, 128 Kbps

скриншот  скриншот  скриншот  

General
Complete name : D:\Ono.prihodit.nochju.2017.HDRip.by.mjjhec.mp4
Format : MPEG-4
Format profile : Base Media
Codec ID : isom (isom/avc1/iso6)
File size : 348 MiB
Duration : 1h 31mn
Overall bit rate mode : Variable
Overall bit rate : 532 Kbps
Encoded date : UTC 2018-04-10 18:45:13
Tagged date : UTC 2018-04-10 18:45:13

Video
ID : 1
Format : AVC
Format/Info : Advanced Video Codec
Format profile : High@L4.1
Format settings, CABAC : Yes
Format settings, ReFrames : 10 frames
Codec ID : avc1
Codec ID/Info : Advanced Video Coding
Duration : 1h 31mn
Bit rate : 400 Kbps
Maximum bit rate : 5 385 Kbps
Width : 640 pixels
Height : 264 pixels
Display aspect ratio : 2.40:1
Frame rate mode : Constant
Frame rate : 23.976 (24000/1001) fps
Color space : YUV
Chroma subsampling : 4:2:0
Bit depth : 8 bits
Scan type : Progressive
Bits/(Pixel*Frame) : 0.099
Stream size : 262 MiB (75%)
Title : 264@GPAC0.5.2-DEV-rev248-g39d5978-master
Writing library : x264 core 146 r2538 121396c
Encoding settings : cabac=1 / ref=10 / deblock=1:-3:-3 / analyse=0x3:0x133 / me=umh / subme=11 / psy=1 / psy_rd=1.00:1.00 / mixed_ref=1 / me_range=48 / chroma_me=1 / trellis=2 / 8x8dct=1 / cqm=0 / deadzone=21,11 / fast_pskip=1 / chroma_qp_offset=-4 / threads=6 / lookahead_threads=1 / sliced_threads=0 / nr=0 / decimate=0 / interlaced=0 / bluray_compat=0 / constrained_intra=0 / bframes=10 / b_pyramid=2 / b_adapt=2 / b_bias=0 / direct=3 / weightb=1 / open_gop=0 / weightp=2 / keyint=240 / keyint_min=23 / scenecut=40 / intra_refresh=0 / rc_lookahead=60 / rc=2pass / mbtree=0 / bitrate=400 / ratetol=1.0 / qcomp=0.60 / qpmin=0 / qpmax=69 / qpstep=4 / cplxblur=20.0 / qblur=0.5 / vbv_maxrate=14000 / vbv_bufsize=14000 / nal_hrd=none / filler=0 / ip_ratio=1.40 / pb_ratio=1.30 / aq=1:1.00
Encoded date : UTC 2018-04-10 18:45:13
Tagged date : UTC 2018-04-10 18:45:46

Audio
ID : 2
Format : AAC
Format/Info : Advanced Audio Codec
Format profile : LC
Codec ID : 40
Duration : 1h 31mn
Bit rate mode : Variable
Bit rate : 128 Kbps
Maximum bit rate : 138 Kbps
Channel(s) : 2 channels
Channel positions : Front: L R
Sampling rate : 48.0 KHz
Frame rate : 46.875 fps (1024 spf)
Compression mode : Lossy
Stream size : 83.9 MiB (24%)
Encoded date : UTC 2018-04-10 16:58:47
Tagged date : UTC 2018-04-10 18:45:46

pb.wtf



Скачать Оно приходит ночью через торрент http://i105.fastpic.ru/big/2018/0407/01/b9eae8b460df26ccca569a161c876d01.png Скачать фильм Оно приходит ночью через торрент бесплантно в хорошем качестве ОписаниеЦивилизацию поражает зловещая эпидемия, превращающая инфицированных в чудовищных монстров. Мир погружается в невыносимый ужас. ... 10 10 2
Торрент: Зарегистрирован [2018-04-14 15:25] · скачан: 23 раз
Статус: √ проверено
Размер: 348 MB
Как cкачать? Как скачать Оно приходит ночью через торрент | UTorrent

% Раздел Тема Автор DL S | L
Фильмы (Blu-ray, BD-Remux, HDDVD) [ 15.86 GB ] Оно приходит ночью / It Comes at Night [2017 BD Remux 1080p] bober100 Скачать
1 | 0
Фильмы 2017 [DVDrip, WEB-DLRip, HDrip] (DUB, MVO) [ 1.46 GB ] Оно приходит ночью / It Comes at Night [2017 BDRip] - [] Twi7ter Скачать
1 | 0
Фильмы [HD 720p, 1080p] (Хороший звук DUB, MVO) [ 7.61 GB ] Оно приходит ночью / It Comes at Night [2017 BDRip 1080p] bober100 Скачать
1 | 0
Фильмы 2017 [DVDrip, WEB-DLRip, HDrip] (DUB, MVO) [ 2.13 GB ] Оно приходит ночью / It Comes at Night [2017 BDRip-AVC] bober100 Скачать
1 | 0
T Фильмы [HD 720p, 1080p] (Хороший звук DUB, MVO) [ 4.62 GB ] Оно приходит ночью / It Comes at Night [2017 BDRip 720p] () Ворон Скачать
1 | 0

28-11-2019 20:33  

Отключить всю рекламу на сайте

    Дорогой пользователь! Огромная просьба, поблагодарите релизера, оцените раздачу и оставьте свои комментарий, если Вы скачали Оно приходит ночью через торрент бесплатно! Внесите свою лепту в развитие PiratBit!
    Комментировать посты могут только пользователи прошедшие не сложную регистрацию
    Показать сообщения:    

    Оно приходит ночью через торрент
    Скачать бесплатно Оно приходит ночью
    Оно приходит ночью скачать торрент
    Оно приходит ночью смотреть онлайн
    Cкачать фильм Оно приходит ночью бесплатно
    Оно приходит ночью скачать торрент в хорошем качестве
    Оно приходит ночью смотреть онлайн бесплатно в хорошем качестве


    Вы не можете начинать темы
    Вы не можете отвечать на сообщения
    Вы не можете редактировать свои сообщения
    Вы не можете удалять свои сообщения
    Вы не можете голосовать в опросах
    Вы не можете прикреплять файлы к сообщениям
    Вы можете скачивать файлы