Ссылка на приватное зеркало нашего сайта всего за 1$. Внимание количество ограничено!!!

2 сезон

iTunes

1 сезон

1

2 сезон

2 сезон

iTunes

1 сезон

RePack

30

Новинка

ВАЖНО

ИГРА 18+

pack

RePack

MK11
pack

Забери бонус

RePack

jed

!!Акция!!

Alien_Rage

RePack

fifa19

RePack

Assassins Creed: Odyssey

RePack

NEED FOR SPEED™ PAYBACK

4 сезон

9 сезон

Бесстыжие 9 сезон

Все сериалы

все сериалы на PB.wtf

RePack

FAR CRY 5
  

Пространство / Экспансия / The Expanse / Сезон: 3 / Серии: 1-13 из 13 (Роберт Либерман, Терри МакДонаф) [2018, Фантастика, детектив, WEB-DL 1080p] MVO [Jaskier] pb.wtf

Пространство через торрент pb.wtf

Раздают: 1 [ 10 KB/s ]
Размер: 27.91 GB | Добавлен: 2 года 5 мес. назад | Торрент скачан:65 раз
Скачать  

14-04-2018 15:42 Пространство Скачать торрент  

Пространство / Экспансия / The Expanse
Информация о фильме:

Название: Пространство / Экспансия
Оригинальное название: The Expanse
Год выпуска: 2018
Страна: США
Жанр: Фантастика, детектив
Продолжительность: ~ 00:43:00
Перевод: Профессиональный многоголосый | Jaskier
Субтитры: английские

Режиссер: Роберт Либерман, Терри МакДонаф

rating

В ролях:

Шоре Агдашлу, Кэс Анвар, Уэс Чэтэм, Томас Джейн, Стивен Стрейт, Доминик Типпер, Афина Карканис, Чад Л. Коулмэн, Илайс Туфекси

Описание:

Через двести лет от дня сегодняшнего некий сыщик, привыкший всё доводить до конца при любых обстоятельствах, в рамках расследования дела об исчезновении молодой женщины оказывается на борту звездолета, капитан которого решает помочь детективу в его непростом деле. Величайший заговор в истории человечества гарантируется, как и его непременное раскрытие.

Информация о файле:

Качество: WEB-DL 1080p
Формат: MKV

Видео: ~ 6100 kbps | 1920x1080 (16:9)
Аудио#1 Rus: AC3 | 48.0 KHz | 6 ch | 384 kbps
Аудио#2 Eng: AC3 | 48.0 KHz | 6 ch | 384 kbps


скриншот   скриншот   скриншот   скриншот   скриншот  

Общее
Уникальный идентификатор : 220957608912990953016386598443502854775 (0xA63AE3361F042F1895393479C594E277)
Полное имя : E:\The Expanse. Season 3 (WEB-DL l 1080p l Jaskier)\The.Expanse.S03E01.1080p.WEB-DL.DD5.1.H.264-Jaskier.mkv
Формат : Matroska
Версия формата : Version 2
Размер файла : 2,07 Гбайт
Продолжительность : 43 м. 37 с.
Режим общего битрейта : Переменный
Общий поток : 6804 Кбит/сек
Дата кодирования : UTC 2018-04-14 14:20:09
Программа кодирования : mkvmerge v7.8.0 ('River Man') 32bit built on Apr 3 2015 12:11:22
Библиотека кодирования : libebml v1.3.1 + libmatroska v1.4.2

Видео
Идентификатор : 1
Формат : AVC
Формат/Информация : Advanced Video Codec
Профиль формата : High@L4
Настройки формата : CABAC / 4 Ref Frames
Параметр CABAC формата : Да
Параметр RefFrames формата : 4 кадра
Идентификатор кодека : V_MPEG4/ISO/AVC
Продолжительность : 43 м. 37 с.
Вид битрейта : Переменный
Битрейт : 5900 Кбит/сек
Максимальный битрейт : 15,0 Мбит/сек
Ширина : 1920 пикселей
Высота : 1080 пикселей
Соотношение сторон : 16:9
Режим частоты кадров : Постоянный
Частота кадров : 23,976 (24000/1001) кадра/сек
Цветовое пространство : YUV
Субдискретизация насыщенности : 4:2:0
Битовая глубина : 8 бит
Тип развёртки : Прогрессивная
Бит/(Пиксели*Кадры) : 0.119
Размер потока : 1,80 Гбайт (87%)
Язык : English
Default : Да
Forced : Нет
Цветовой диапазон : Limited
Основные цвета : BT.709
Характеристики трансфера : BT.709
Коэффициенты матрицы : BT.709

Аудио #1
Идентификатор : 2
Формат : AC-3
Формат/Информация : Audio Coding 3
Идентификатор кодека : A_AC3
Продолжительность : 43 м. 37 с.
Вид битрейта : Постоянный
Битрейт : 384 Кбит/сек
Каналы : 6 каналов
Расположение каналов : Front: L C R, Side: L R, LFE
Частота : 48,0 КГц
Частота кадров : 31,250 кадров/сек (1536 SPF)
Битовая глубина : 16 бит
Метод сжатия : С потерями
Размер потока : 120 Мбайт (6%)
Заголовок : Jaskier
Язык : Russian
ServiceKind/String : Complete Main
Default : Да
Forced : Нет

Аудио #2
Идентификатор : 3
Формат : AC-3
Формат/Информация : Audio Coding 3
Идентификатор кодека : A_AC3
Продолжительность : 43 м. 37 с.
Вид битрейта : Постоянный
Битрейт : 384 Кбит/сек
Каналы : 6 каналов
Расположение каналов : Front: L C R, Side: L R, LFE
Частота : 48,0 КГц
Частота кадров : 31,250 кадров/сек (1536 SPF)
Битовая глубина : 16 бит
Метод сжатия : С потерями
Размер потока : 120 Мбайт (6%)
Язык : English
ServiceKind/String : Complete Main
Default : Нет
Forced : Нет

Текст
Идентификатор : 4
Формат : UTF-8
Идентификатор кодека : S_TEXT/UTF8
Идентификатор кодека/Информация : UTF-8 Plain Text
Язык : English
Default : Нет
Forced : Нет

Внимание! Раздача ведётся путём добавления новых серий; при каждом добавлении создаётся новый торрент. Чтобы начать докачку новой серии, пользователям необходимо сделать следующее:
(1) остановить скачивание,
(2) удалить старый торрент у себя из клиента (старые серии удалять не надо),
(3) скачать новый торрент и запустить его у себя в клиенте вместо старого, при этом указать клиенту путь в старую папку куда и должно происходить скачивание новых серий.
Ваш клиент при этом должен произвести хеширование (проверку) старой папки (если не производит сам - помогите ему сделать это), и будет докачивать только те серии которых у вас ещё нет. Старые серии при этом не удаляются, а продолжают раздаваться!
Eсли вы уже удалили старые серии, то предотвратить повторную закачку старых серий можно, отжав галочку в соответствующих местах при запуске нового торрента. По возможности, желательно не удалять старые серии как можно дольше чтобы релизёр не столько продолжал раздавать старые серии, а смог сконцентрироваться на новых.
pb.wtf



Скачать Пространство через торрент http://pic1.kartinco.top/images/11/okfxs.jpg Скачать фильм Пространство через торрент бесплантно в хорошем качестве Описание: Через двести лет от дня сегодняшнего некий сыщик, привыкший всё доводить до конца при любых обстоятельствах, в рамках ... 9.9 10 11
Info! Золотая раздача, скачанное не засчитывается.
Торрент: Зарегистрирован [2018-07-01 05:54] · скачан: 65 раз
Статус: √ проверено
Размер: 27.91 GB
Как cкачать? Как скачать Пространство через торрент | qTorrent

% Раздел Тема Автор DL S | L
Зарубежные сериалы [ 14.18 GB ] Пространство / Экспансия / The Expanse / Сезон: 3 / Серии: 1-13 из 13 [2018 WEB-DL 720p] MVO [LostFilm] bober100 Скачать
1 | 0
Зарубежные сериалы [ 29.93 GB ] Пространство / Экспансия / The Expanse / Сезон: 3 / Серии: 1-13 из 13 [2018 WEB-DL 1080p] MVO [LostFilm] bober100 Скачать
1 | 0
Зарубежные сериалы [ 7.05 GB ] Пространство / Экспансия / The Expanse / Сезон: 3 / Серии: 1-13 из 13 [2018 WEB-DLRip] MVO [LostFilm] bober100 Скачать
1 | 0
Зарубежные сериалы [ 12.16 GB ] Пространство / Экспансия / The Expanse / Сезон: 3 / Серии: 1-13 из 13 [2018 WEB-DL 720p] MVO [Jaskier] bober100 Скачать
1 | 0
Зарубежные сериалы [ 6.99 GB ] Пространство / Экспансия / The Expanse / Сезон: 3 / Серии: 1-13 из 13 [2018 WEB-DLRip] MVO [Jaskier] bober100 Скачать
1 | 0

28-11-2019 20:33  

Отключить всю рекламу на сайте

04-07-2018 09:42 Пространство Скачать торрент  

хороший сериал, первые два сезона зашли нормально, посмотрим как этот будетpb.wtf



    Дорогой пользователь! Огромная просьба, поблагодарите релизера, оцените раздачу и оставьте свои комментарий, если Вы скачали Пространство через торрент бесплатно! Внесите свою лепту в развитие PiratBit!
    Комментировать посты могут только пользователи прошедшие не сложную регистрацию
    Показать сообщения:    

    Пространство через торрент
    Скачать бесплатно Пространство
    Пространство скачать торрент
    Пространство смотреть онлайн
    Cкачать фильм Пространство бесплатно
    Пространство скачать торрент в хорошем качестве
    Пространство смотреть онлайн бесплатно в хорошем качестве


    Вы не можете начинать темы
    Вы не можете отвечать на сообщения
    Вы не можете редактировать свои сообщения
    Вы не можете удалять свои сообщения
    Вы не можете голосовать в опросах
    Вы не можете прикреплять файлы к сообщениям
    Вы можете скачивать файлы