Ссылка на приватное зеркало нашего сайта всего за 1$. Внимание количество ограничено!!!

2 сезон

iTunes

1 сезон

1

iTunes

iTunes

iTunes

1 сезон

RePack

30

ИГРА 18+

pack

ВАЖНО

!!Акция!!

Alien_RageХит недели

RePack

MK11
pack

Забери бонус

RePack

jed

!!Акция!!

Alien_Rage

RePack

fifa19

RePack

Assassins Creed: Odyssey

RePack

NEED FOR SPEED™ PAYBACK

4 сезон

9 сезон

Бесстыжие 9 сезон

Все сериалы

все сериалы на PB.wtf

RePack

FAR CRY 5
  

Не в деньгах счастье / Серии: 1-4 из 4 (Ольга Ланд) [2017, Мелодрама, детектив, WEB-DLRip] pb.wtf

Не в деньгах счастье через торрент pb.wtf

Размер: 2.15 GB | Добавлен: 2 года 6 мес. назад | Торрент скачан:79 раз
Скачать  

14-04-2018 21:14 Не в деньгах счастье Скачать торрент  

Не в деньгах счастьеГод выпуска: 2017
Страна: Россия
Жанр: Мелодрама, детектив
Продолжительность: ~ 00:44:30
Перевод: Не требуется
Субтитры: отсутствуют

Режиссер: Ольга Ланд



В ролях:

Евгения Лоза, Александр Никитин, Ярослав Бойко, Павел Гусаров, Мария Берсенева, Илья Оболонков, Светлана Кожемякина

Описание:

Жизнь домохозяйки Виктории Невской - как ожившая рождественская картинка. У нее есть дочка Маша, сын Ник и заботливый, любящий муж Борис. Но все меняется в один день, когда муж не приходит домой, его телефон не отвечает, в офисе его тоже не видели. Через несколько дней Бориса объявляют в розыск. Вика вынуждена привыкать к новой жизни, а проблем хватает: все счета заблокированы, просрочка по кредиту, коллекторы, дочери Маше приходится оставить платные занятия теннисом, за детский садик сына платить нечем. Вика устраивается на работу в банк простой операционисткой и регулярно ходит на опознания в морг. Отсидевший за непреднамеренное убийство Павел Гусаров разыскивает свою девушку Алёну и выясняет, что в её квартире сейчас живут Невские. Павел подозревает, что к исчезновению Алёны прямое отношение имеет Борис Невский. Вместе с Викой они начинают расследование...

Качество: WEB-DLRip
Формат: AVI

Видео: XviD, ~ 1550 Кбит/с, 720x400
Аудио: AC3, 2 ch, 192 Кбит/с
скриншот   скриншот   скриншот  

Общее
Полное имя : D:\Не в деньгах счастье (2017).WEB-DLRip.Files-x\01.Не в деньгах счастье (2017).WEB-DLRip.Files-x.avi
Формат : AVI
Формат/Информация : Audio Video Interleave
Размер файла : 549 Мбайт
Продолжительность : 43 м. 24 с.
Общий поток : 1769 Кбит/сек
Программа кодирования : VirtualDubMod 1.5.10.3 | www.virtualdub-fr.org || (build 2550/release)
Библиотека кодирования : VirtualDubMod build 2550/release

Видео
Идентификатор : 0
Формат : MPEG-4 Visual
Профиль формата : Advanced Simple@L5
Параметр BVOP формата : 1
Параметр QPel формата : Нет
Параметр GMC формата : Без точки перехода
Параметр матрицы формата : Выборочная
Идентификатор кодека : XVID
Идентификатор кодека/Подсказка : XviD
Продолжительность : 43 м. 24 с.
Битрейт : 1568 Кбит/сек
Ширина : 720 пикселей
Высота : 400 пикселей
Соотношение сторон : 16:9
Частота кадров : 24,000 кадра/сек
Цветовое пространство : YUV
Субдискретизация насыщенности : 4:2:0
Битовая глубина : 8 бит
Тип развёртки : Прогрессивная
Метод сжатия : С потерями
Бит/(Пиксели*Кадры) : 0.227
Размер потока : 487 Мбайт (89%)
Библиотека кодирования : XviD 73

Аудио
Идентификатор : 1
Формат : AC-3
Формат/Информация : Audio Coding 3
Расширение режима : CM (complete main)
Параметр Endianness формата : Big
Идентификатор кодека : 2000
Продолжительность : 43 м. 24 с.
Вид битрейта : Постоянный
Битрейт : 192 Кбит/сек
Каналы : 2 канала
Расположение каналов : Front: L R
Частота : 48,0 КГц
Частота кадров : 31,250 кадров/сек (1536 spf)
Метод сжатия : С потерями
Размер потока : 59,6 Мбайт (11%)
Выравнивание : Разделение по промежуткам
Продолжительность промежутка : 42 мс. (1,00 видеокадр)
Время предзагрузки промежутка : 500 мс.

pb.wtf



Скачать Не в деньгах счастье через торрент http://i89.fastpic.ru/big/2017/1028/29/52b70568f9529c419ad1034159dc9829.jpg Скачать фильм Не в деньгах счастье через торрент бесплантно в хорошем качестве Описание: Жизнь домохозяйки Виктории Невской - как ожившая рождественская картинка. У нее есть дочка Маша, сын Ник и заботливый, любящий ... 10 10 3
Торрент: Зарегистрирован [2018-04-14 21:14] · скачан: 79 раз
Статус: √ проверено
Размер: 2.15 GB
Как cкачать? Как скачать Не в деньгах счастье через торрент | qTorrent

% Раздел Тема Автор DL S | L
Наши сериалы [ 2.4 GB ] Не в деньгах счастье / Серии: 1-4 из 4 [2017 Мело SATRip] bober100 Скачать
1 | 0
Наши сериалы [ 2.23 GB ] Не в деньгах счастье / Серии: 1-4 из 4 [2017 Мело WEB-DLRip-AVC] bober100 Скачать
1 | 0

28-11-2019 20:33  

Отключить всю рекламу на сайте

    Дорогой пользователь! Огромная просьба, поблагодарите релизера, оцените раздачу и оставьте свои комментарий, если Вы скачали Не в деньгах счастье через торрент бесплатно! Внесите свою лепту в развитие PiratBit!
    Комментировать посты могут только пользователи прошедшие не сложную регистрацию
    Показать сообщения:    

    Не в деньгах счастье через торрент
    Скачать бесплатно Не в деньгах счастье
    Не в деньгах счастье скачать торрент
    Не в деньгах счастье смотреть онлайн
    Cкачать фильм Не в деньгах счастье бесплатно
    Не в деньгах счастье скачать торрент в хорошем качестве
    Не в деньгах счастье смотреть онлайн бесплатно в хорошем качестве


    Вы не можете начинать темы
    Вы не можете отвечать на сообщения
    Вы не можете редактировать свои сообщения
    Вы не можете удалять свои сообщения
    Вы не можете голосовать в опросах
    Вы не можете прикреплять файлы к сообщениям
    Вы можете скачивать файлы