Ссылка на приватное зеркало всего за 1$. Внимание количество ограничено!!!

OK

1+1

iTunes

мы

OK

1

WEB-DLRip

Джокер

Пифагор

Ведьмак / The Witcher сериал

iTunes

ПШазам

ОК

Оно 2

iTunes

30
pack

Вам бонус

ВАЖНО

!!Акция!!

Alien_RageХит недели

RePack

Resident Evil 21

ИГРА 18+

pack

RePack

jed

RePack

fifa19

RePack

Assassins Creed: Odyssey

RePack

NEED FOR SPEED™ PAYBACK

4 сезон

9 сезон

Бесстыжие 9 сезон

Все сериалы

все сериалы на PB.wtf

RePack

FAR CRY 5
  

Конопляное мочилово / 4/20 Massacre (Дилан Рейнольдс) [2018, фэнтези, боевик, приключения, WEB-DL 720p] MVO [КОЛОБОК] pb.wtf

Конопляное мочилово через торрент pb.wtf

Размер: 2.92 GB | Добавлен: 1 год 9 мес. назад | Торрент скачан:177 раз
Скачать  

15-04-2018 08:33 Конопляное мочилово Скачать торрент  

Конопляное мочилово / 4/20 MassacreГод выпуска: 2018
Страна: США
Жанр: фэнтези, боевик, приключения
Продолжительность: 01:26:36
Перевод: Любительский (многоголосый) | КОЛОБОК

Режиссер: Дилан Рейнольдс

rating

В ролях:

Мэттью Гуд, Тони Коллетт, Майкл Смайли, Фионнула Флэнаган, Сюзанн Клеман, Андреас Апергис, Джейдин Мэлоун, Натали Тибо, Катрин Лемье, Тайрон Бенскин

Описание:

20 апреля группа девушек отправляется в лес, чтобы отметить день рождение подруги и как следует накуриться, но к сожалению они оказываются неподалёку от конопляных плантаций дикого мичуринца.

Качество: WEB-DL 720p
Формат: MKV

Видео: H.264, 4 442 kb/s, 1276x686
Аудио#1: AC3, 2 ch, 384 Кбит/с
скриншот  скриншот  скриншот  

Общее
Уникальный идентификатор : 174849372469389606274336172812109725272 (0x838AC3A3E57E300CB55E502C0DB9BE58)
Полное имя : D:\420 Massacre.2018.Pk.WEB-DL.72Op.mkv
Формат : Matroska
Версия формата : Version 2
Размер файла : 2,92 Гбайт
Продолжительность : 1 ч. 26 м.
Режим общего битрейта : Переменный
Общий поток : 4828 Кбит/сек
Дата кодирования : UTC 2018-04-13 14:42:52
Программа кодирования : mkvmerge v8.3.0 ('Over the Horizon') 64bit
Библиотека кодирования : libebml v1.3.1 + libmatroska v1.4.2

Видео
Идентификатор : 1
Формат : AVC
Формат/Информация : Advanced Video Codec
Профиль формата : High@L4.1
Параметр CABAC формата : Да
Параметр RefFrames формата : 4 кадра
Идентификатор кодека : V_MPEG4/ISO/AVC
Продолжительность : 1 ч. 26 м.
Вид битрейта : Переменный
Битрейт : 4442 Кбит/сек
Максимальный битрейт : 5000 Кбит/сек
Ширина : 1276 пикселей
Высота : 686 пикселей
Соотношение сторон : 1,85:1
Режим частоты кадров : Постоянный
Частота кадров : 23,976 (24000/1001) кадра/сек
Стандарт вещания : Component
Цветовое пространство : YUV
Субдискретизация насыщенности : 4:2:0
Битовая глубина : 8 бит
Тип развёртки : Прогрессивная
Бит/(Пиксели*Кадры) : 0.207
Размер потока : 2,63 Гбайт (90%)
Default : Да
Forced : Нет
Цветовой диапазон : Limited
Основные цвета : BT.709
Характеристики трансфера : BT.709
Коэффициенты матрицы : BT.709

Аудио
Идентификатор : 2
Формат : AC-3
Формат/Информация : Audio Coding 3
Расширение режима : CM (complete main)
Параметр Endianness формата : Big
Идентификатор кодека : A_AC3
Продолжительность : 1 ч. 26 м.
Вид битрейта : Постоянный
Битрейт : 384 Кбит/сек
Каналы : 2 канала
Расположение каналов : Front: L R
Частота : 48,0 КГц
Частота кадров : 31,250 кадров/сек (1536 spf)
Метод сжатия : С потерями
Размер потока : 238 Мбайт (8%)
Default : Да
Forced : Нет

pb.wtf



Скачать Конопляное мочилово через торрент http://pic1.kartinco.top/images/11/l6hn7.jpg Скачать фильм Конопляное мочилово через торрент бесплантно в хорошем качестве Описание: 20 апреля группа девушек отправляется в лес, чтобы отметить день рождение подруги и как следует накуриться, но к сожалению они ... 6.4 10 11
Торрент: Зарегистрирован [2018-04-15 08:33] · скачан: 177 раз
Статус: T временная
Размер: 2.92 GB
Как cкачать? Как скачать Конопляное мочилово через торрент | qTorrent

% Раздел Тема Автор DL S | L
T Фильмы (мультфильмы) cо спонсором показа (Новинки AVI/MKV) [ 1.37 GB ] Конопляное мочилово / 4/20 Massacre [2018 WEB-DLRip] MVO [КОЛОБОК] bober100 Скачать
1 | 0

28-11-2019 20:33  

Отключить всю рекламу на сайте

15-04-2018 15:21 Конопляное мочилово Скачать торрент  

Рейтинг, явно завышен... не смотрибельно, вообще(((...pb.wtf



16-04-2018 05:40 Конопляное мочилово Скачать торрент  

Ахах дикий мичуринець))) ето чо курить то надо ))))pb.wtf



17-04-2018 08:47 Конопляное мочилово Скачать торрент  

urvic писал(а):

Рейтинг, явно завышен... не смотрибельно, вообще(((...

17 человек не могут врать! ))) ахахах
такие фильму лучше смотреть на ютубе в треш обзорах. шоб смешно.pb.wtf



    Дорогой пользователь! Огромная просьба, поблагодарите релизера, оцените раздачу и оставьте свои комментарий, если Вы скачали Конопляное мочилово через торрент бесплатно! Внесите свою лепту в развитие PiratBit!
    Комментировать посты могут только пользователи прошедшие не сложную регистрацию
    Показать сообщения:    

    Конопляное мочилово через торрент
    Скачать бесплатно Конопляное мочилово
    Конопляное мочилово скачать торрент
    Конопляное мочилово смотреть онлайн
    Cкачать фильм Конопляное мочилово бесплатно
    Конопляное мочилово скачать торрент в хорошем качестве
    Конопляное мочилово смотреть онлайн бесплатно в хорошем качестве


    Вы не можете начинать темы
    Вы не можете отвечать на сообщения
    Вы не можете редактировать свои сообщения
    Вы не можете удалять свои сообщения
    Вы не можете голосовать в опросах
    Вы не можете прикреплять файлы к сообщениям
    Вы можете скачивать файлы