2 сезон

iTunes

MVO

1

2 сезон

iTunes

iTunes

1 сезон

RePack

30

Новинка

ВАЖНО

ИГРА 18+

pack

RePack

MK11
pack

Легкие деньги

RePack

jed

RePack

fifa19

RePack

RDR2

RePack

NEED FOR SPEED™ PAYBACK

4 сезон

9 сезон

Бесстыжие 9 сезон

Все сериалы

все сериалы на PB.wtf

RePack

FAR CRY 5

Anonymous, добрый вечер, мы не успеваем собрать деньги на оплату серверов за декабрь и январь, помогите нам пожалуйста в это трудное время. В качестве благодарности мы отключим Вам всю рекламу на сайте (укажите свой ник в строку Ваше имя)!

×
  
Magnet ссылка

Тельма / Thelma (Йоаким Триер) [2017 г., Триллер, драма, мелодрама, детектив, HDRip, КПК] Dub [iTunes] pb.wtf

Тельма через торрент pb.wtf

Размер: 439 MB | Добавлен: 2 года 9 мес. назад | Торрент скачан:20 раз
Скачать  

15-04-2018 10:08 Тельма Скачать торрент  

Тельма / Thelma

Год выпуска: 2017
Страна: Норвегия, Франция, Дания, Швеция
Жанр: Триллер, драма, мелодрама, детектив
Продолжительность: 01:56:23
Перевод: Дубляж [iTunes]

Режиссер

Йоаким Триер

rating

В ролях

Элли Харбоа, Кая Уилкинс, Хенрик Рафаелсен, Эллен Доррит Петерсен, Людвиг Альгебак, Изабель Кристин Андресен, Камилла Бельсвик, Ларс Берге, Ванесса Боргли, Сигве Бёэ.

Описание

Тельма поступает в университет и впервые начинает жить отдельно от родителей, гиперопекающих христиан. Девушка не поддается соблазнам, не пьет и не курит, но одному соблазну противостоять не может — ей очень нравится сокурсница Аня. Пробуждающиеся чувства и желания внезапно высвобождают ее пугающие тёмные способности. Когда подруга Тельмы пропадает, девушка осознает, что это может быть ее виной...

Качество: HDRip
Формат: MP4
Видео кодек: AVC
Аудио кодек: AAC LC

Видео: Н.264, 640x264 (2.40:1), 23.976 fps, 400 Kbps
Аудио: AAC LC, 48.0 KHz, 2 ch, 128 Kbps

скриншот  скриншот  скриншот  

General
Complete name : D:\Thelma.2017.HDRip.by.mjjhec.mp4
Format : MPEG-4
Format profile : Base Media
Codec ID : isom (isom/avc1/iso6)
File size : 439 MiB
Duration : 1h 56mn
Overall bit rate mode : Variable
Overall bit rate : 527 Kbps
Encoded date : UTC 2018-04-10 10:09:26
Tagged date : UTC 2018-04-10 10:09:26

Video
ID : 1
Format : AVC
Format/Info : Advanced Video Codec
Format profile : High@L4.1
Format settings, CABAC : Yes
Format settings, ReFrames : 10 frames
Codec ID : avc1
Codec ID/Info : Advanced Video Coding
Duration : 1h 56mn
Bit rate : 400 Kbps
Maximum bit rate : 1 902 Kbps
Width : 640 pixels
Height : 264 pixels
Display aspect ratio : 2.40:1
Frame rate mode : Constant
Frame rate : 23.976 (24000/1001) fps
Color space : YUV
Chroma subsampling : 4:2:0
Bit depth : 8 bits
Scan type : Progressive
Bits/(Pixel*Frame) : 0.099
Stream size : 329 MiB (75%)
Title : 264@GPAC0.5.2-DEV-rev248-g39d5978-master
Writing library : x264 core 146 r2538 121396c
Encoding settings : cabac=1 / ref=10 / deblock=1:-3:-3 / analyse=0x3:0x133 / me=umh / subme=11 / psy=1 / psy_rd=1.00:1.00 / mixed_ref=1 / me_range=48 / chroma_me=1 / trellis=2 / 8x8dct=1 / cqm=0 / deadzone=21,11 / fast_pskip=1 / chroma_qp_offset=-4 / threads=6 / lookahead_threads=1 / sliced_threads=0 / nr=0 / decimate=0 / interlaced=0 / bluray_compat=0 / constrained_intra=0 / bframes=10 / b_pyramid=2 / b_adapt=2 / b_bias=0 / direct=3 / weightb=1 / open_gop=0 / weightp=2 / keyint=240 / keyint_min=23 / scenecut=40 / intra_refresh=0 / rc_lookahead=60 / rc=2pass / mbtree=0 / bitrate=400 / ratetol=1.0 / qcomp=0.60 / qpmin=0 / qpmax=69 / qpstep=4 / cplxblur=20.0 / qblur=0.5 / vbv_maxrate=14000 / vbv_bufsize=14000 / nal_hrd=none / filler=0 / ip_ratio=1.40 / pb_ratio=1.30 / aq=1:1.00
Encoded date : UTC 2018-04-10 10:09:26
Tagged date : UTC 2018-04-10 10:10:46

Audio
ID : 2
Format : AAC
Format/Info : Advanced Audio Codec
Format profile : LC
Codec ID : 40
Duration : 1h 56mn
Bit rate mode : Variable
Bit rate : 128 Kbps
Maximum bit rate : 138 Kbps
Channel(s) : 2 channels
Channel positions : Front: L R
Sampling rate : 48.0 KHz
Frame rate : 46.875 fps (1024 spf)
Compression mode : Lossy
Stream size : 107 MiB (24%)
Encoded date : UTC 2018-04-10 08:05:04
Tagged date : UTC 2018-04-10 10:10:46

pb.wtf



Скачать Тельма через торрент http://i99.fastpic.ru/big/2018/0405/8a/c3cdb5f3834b1f091e6d0005a65c4f8a.jpg Скачать фильм Тельма через торрент бесплантно в хорошем качестве ОписаниеТельма поступает в университет и впервые начинает жить отдельно от родителей, гиперопекающих христиан. Девушка не поддается ... 10 10 2
Торрент: Зарегистрирован [2018-04-15 10:08] · скачан: 20 раз
Статус: √ проверено
Размер: 439 MB
Как cкачать? Как скачать Тельма через торрент | UTorrent

% Раздел Тема Автор DL S | L
Фильмы [HD 720p, 1080p] (Хороший звук DUB, MVO) [ 12.23 GB ] Тельма и Луиза / Thelma & Louise [1991 BDRip-HEVC 1080p] 3хMVO + 3хAVO RealOldGamer Скачать
3 | 0
Фильмы [HD 720p, 1080p] (Хороший звук DUB, MVO) [ 10.82 GB ] Тельма / Thelma [2017 BDRip 1080p] bober100 Скачать
1 | 0
Фильмы (Blu-ray, BD-Remux, HDDVD) [ 35.21 GB ] Тельма / Thelma [2017 Blu-ray 1080p] - sheker187 Скачать
1 | 0
Фильмы 2017 [DVDrip, WEB-DLRip, HDrip] (DUB, MVO) [ 2.13 GB ] Тельма / Thelma [2017 BDRip] - Twi7ter Скачать
2 | 0
Фильмы 2017 [DVDrip, WEB-DLRip, HDrip] (DUB, MVO) [ 1.41 GB ] Тельма / Thelma [2017 BDRip] - Twi7ter Скачать
2 | 0
Фильмы 2017 [DVDrip, WEB-DLRip, HDrip] (DUB, MVO) [ 1.41 GB ] Тельма / Thelma [2017 BDRip] bober100 Скачать
1 | 1
Фильмы 2017 [DVDrip, WEB-DLRip, HDrip] (DUB, MVO) [ 1.47 GB ] Тельма / Thelma [2017 BDRip-AVC] bober100 Скачать
1 | 0

28-11-2019 20:33  

Отключить всю рекламу на сайте

    Дорогой пользователь! Огромная просьба, поблагодарите релизера, оцените раздачу и оставьте свои комментарий, если Вы скачали Тельма через торрент бесплатно! Внесите свою лепту в развитие PiratBit!
    Комментировать посты могут только пользователи прошедшие не сложную регистрацию
    Показать сообщения:    

    Тельма через торрент
    Скачать бесплатно Тельма
    Тельма скачать торрент
    Тельма смотреть онлайн
    Cкачать фильм Тельма бесплатно
    Тельма скачать торрент в хорошем качестве
    Тельма смотреть онлайн бесплатно в хорошем качестве


    Вы не можете начинать темы
    Вы не можете отвечать на сообщения
    Вы не можете редактировать свои сообщения
    Вы не можете удалять свои сообщения
    Вы не можете голосовать в опросах
    Вы не можете прикреплять файлы к сообщениям
    Вы можете скачивать файлы