Ссылка на приватное зеркало нашего сайта всего за 1$. Внимание количество ограничено!!!

2 сезон

iTunes

1 сезон

1

2 сезон

2 сезон

iTunes

1 сезон

RePack

30

Ultimate

ВАЖНО

ИГРА 18+

pack

RePack

MK11
pack

Забери бонус

RePack

jed

!!Акция!!

Alien_Rage

RePack

fifa19

RePack

Assassins Creed: Odyssey

RePack

NEED FOR SPEED™ PAYBACK

4 сезон

9 сезон

Бесстыжие 9 сезон

Все сериалы

все сериалы на PB.wtf

RePack

FAR CRY 5
  

Патрульный / Linewatch (Кевин Брэй) [2008, Триллер, драма, криминал, WEB-DL 1080p] MVO [Лицензия R5] [AMZN Version] pb.wtf

Патрульный через торрент pb.wtf

Размер: 6.78 GB | Добавлен: 2 года 7 мес. назад | Торрент скачан:92 раза
Скачать  

16-04-2018 05:12 Патрульный Скачать торрент  

Патрульный / Linewatch
Год выпуска: 2008
Страна: США
Жанр: Триллер, драма, криминал
Продолжительность: 01:29:41
Перевод: Профессиональный многоголосый | Лицензия R5
Субтитры: Английские (Full, SDH)

Режиссер: Кевин Брэй

rating

В ролях:

Кьюба Гудинг мл., Омари Хардвик, Шэрон Лил, Ивэн Росс, Дин Норрис, Крис Браунинг, Омар Пас Тружильо, Джош Коффман

Описание:

Майкл Диксон — уважаемый агент патрульной службы на границе США-Мексика и заботливый семьянин. Но в недавнем прошлом он был по другую сторону Закона и являлся членом бандитской группировки в Лос-Анджелесе. Казалось, его жизнь наладилась. Но, как известно, из банды просто так не уходят...

Качество: WEB-DL 1080p | AMZN Version
Формат: MKV

Видео: MPEG-4 AVC, 10000 Кбит/с, 1920x1080, 23,976 кадр/с
Аудио#1: Русский (AC3, 6 ch, 448 Кбит/с) / Профессиональный многоголосый (R5, DVD)
Аудио#2: Английский (AC3, 6 ch, 448 Кбит/с)
скриншот   скриншот   скриншот   скриншот   скриншот  

General
Unique ID : 288225668389473150350649097165751966223 (0xD8D63E9AC74639E12F73EEA232D3DA0F)
Complete name : D:uTorrentPatrulnyi.2008.WEB-DL.1080p.AMZN.MediaClub.mkv
Format : Matroska
Format version : Version 4 / Version 2
File size : 6.78 GiB
Duration : 1 h 29 min
Overall bit rate : 10.8 Mb/s
Encoded date : UTC 2018-04-04 09:10:06
Writing application : mkvmerge v19.0.0 ('Brave Captain') 64-bit
Writing library : libebml v1.3.5 + libmatroska v1.4.8
Cover : Yes
Attachments : cover.jpg

Video
ID : 1
Format : AVC
Format/Info : Advanced Video Codec
Format profile : High@L4
Format settings : CABAC / 4 Ref Frames
Format settings, CABAC : Yes
Format settings, RefFrames : 4 frames
Format settings, GOP : M=4, N=48
Codec ID : V_MPEG4/ISO/AVC
Duration : 1 h 29 min
Bit rate mode : Constant
Bit rate : 10 000 kb/s
Width : 1 920 pixels
Height : 1 080 pixels
Display aspect ratio : 16:9
Frame rate mode : Constant
Frame rate : 23.976 (24000/1001) FPS
Color space : YUV
Chroma subsampling : 4:2:0
Bit depth : 8 bits
Scan type : Progressive
Bits/(Pixel*Frame) : 0.201
Stream size : 6.21 GiB (92%)
Title : WEB-DL.1080p.AMZN by Silverok
Default : Yes
Forced : No
Color range : Limited
Color primaries : BT.709
Transfer characteristics : BT.709
Matrix coefficients : BT.709

Audio #1
ID : 2
Format : AC-3
Format/Info : Audio Coding 3
Codec ID : A_AC3
Duration : 1 h 29 min
Bit rate mode : Constant
Bit rate : 448 kb/s
Channel(s) : 6 channels
Channel positions : Front: L C R, Side: L R, LFE
Sampling rate : 48.0 kHz
Frame rate : 31.250 FPS (1536 SPF)
Bit depth : 16 bits
Compression mode : Lossy
Stream size : 287 MiB (4%)
Title : Профессиональный многоголосый (R5, DVD)
Language : Russian
Service kind : Complete Main
Default : Yes
Forced : No

Audio #2
ID : 3
Format : AC-3
Format/Info : Audio Coding 3
Codec ID : A_AC3
Duration : 1 h 29 min
Bit rate mode : Constant
Bit rate : 448 kb/s
Channel(s) : 6 channels
Channel positions : Front: L C R, Side: L R, LFE
Sampling rate : 48.0 kHz
Frame rate : 31.250 FPS (1536 SPF)
Bit depth : 16 bits
Compression mode : Lossy
Stream size : 287 MiB (4%)
Language : English
Service kind : Complete Main
Default : No
Forced : No

Text #1
ID : 4
Format : UTF-8
Codec ID : S_TEXT/UTF8
Codec ID/Info : UTF-8 Plain Text
Duration : 1 h 24 min
Bit rate : 49 b/s
Count of elements : 1031
Stream size : 30.6 KiB (0%)
Title : Full
Language : English
Default : Yes
Forced : No

Text #2
ID : 5
Format : UTF-8
Codec ID : S_TEXT/UTF8
Codec ID/Info : UTF-8 Plain Text
Duration : 1 h 24 min
Bit rate : 50 b/s
Count of elements : 1065
Stream size : 31.2 KiB (0%)
Title : SDH
Language : English
Default : No
Forced : No
pb.wtf



Скачать Патрульный через торрент https://i58.fastpic.ru/big/2013/1204/28/fc7ed4406b5ae43fdf9d8b76e19e7428.jpg Скачать фильм Патрульный через торрент бесплантно в хорошем качестве Описание: Майкл Диксон — уважаемый агент патрульной службы на границе США-Мексика и заботливый семьянин. Но в недавнем прошлом он был по ... 10 10 4
Info! Серебряная раздача, засчитывается только 50% скачанного.
Торрент: Зарегистрирован [2018-04-16 05:12] · скачан: 92 раз
Статус: √ проверено
Размер: 6.78 GB
Как cкачать? Как скачать Патрульный через торрент | qTorrent

28-11-2019 20:33  

Отключить всю рекламу на сайте

    Дорогой пользователь! Огромная просьба, поблагодарите релизера, оцените раздачу и оставьте свои комментарий, если Вы скачали Патрульный через торрент бесплатно! Внесите свою лепту в развитие PiratBit!
    Комментировать посты могут только пользователи прошедшие не сложную регистрацию
    Показать сообщения:    

    Патрульный через торрент
    Скачать бесплатно Патрульный
    Патрульный скачать торрент
    Патрульный смотреть онлайн
    Cкачать фильм Патрульный бесплатно
    Патрульный скачать торрент в хорошем качестве
    Патрульный смотреть онлайн бесплатно в хорошем качестве


    Вы не можете начинать темы
    Вы не можете отвечать на сообщения
    Вы не можете редактировать свои сообщения
    Вы не можете удалять свои сообщения
    Вы не можете голосовать в опросах
    Вы не можете прикреплять файлы к сообщениям
    Вы можете скачивать файлы