Мега распродажа FORZA HORIZON 4 ULTIMATE+ВСЕ DLC+ОНЛАЙН всего за 499р. 349 руб. (супер цена). Внимание количество ограничено!!!

iTunes

1+1

iTunes

мы

iTunes

1

1 сезон

Чернобыль

1 сезон

Ральф против интернета

Лицензия

ПШазам

8 сезон

Игра престолов

Лицензия

30
pack

ВАЖНО

!!Акция!!

Alien_RageХит недели

RePack

Resident Evil 21

ИГРА 18+

pack

RePack

Metro:Exodus

!!Акция!!

Alien_Rage

RePack

fifa19

RePack

Assassins Creed: Odyssey

RePack

NEED FOR SPEED™ PAYBACK

3 сезон

9 сезон

Бесстыжие 9 сезон

Все сериалы

все сериалы на PB.wtf

RePack

FAR CRY 5
Ребята, катастрофически не хватает 2730р. для оплаты серверов за ИЮНЬ (всвязи с блокировками трафик упал в 3 раза), 1-2р., выручайте.
  

Ходячие мертвецы / The Walking Dead / Сезон: 8 / Серии: 1-16 из 16 (Грег Никотеро, Эрнест Р. Дикерсон, Гай Ферленд) [2017, ужасы, драма, HDTVRip] MVO [ColdFilm] pb.wtf

Ходячие мертвецы через торрент pb.wtf

Размер: 7.99 GB | Добавлен: 1 год 3 мес. назад | Торрент скачан:59 раз
Скачать  

16-04-2018 08:59 Ходячие мертвецы Скачать торрент  

Ходячие мертвецы / The Walking DeadГод выпуска: 2017
Страна: США
Жанр: ужасы, драма
Продолжительность: ~ 00:45:00
Перевод: Любительский многоголосый |
Субтитры: отсутствуют

Режиссер: Грег Никотеро, Эрнест Р. Дикерсон, Гай Ферленд

rating

В ролях:

Эндрю Линкольн, Стивен Ян, Чендлер Риггз, Норман Ридус, Мелисса Сюзанн МакБрайд, Лорен Кохэн, Данай Джекесай Гурира, Сонекуа Мартин-Грин, Эмили Кинни, Аланна Мастерсон

Описание:

После страшной болезни, превратившей жителей Земли в зомби, небольшая группа пока еще живых людей изо дня в день борется за выживание в новом, враждебном мире. Под предводительством бывшего полицейского Рика они ищут безопасное для жизни место, но зомби — это не самое страшное, что их ждет, основная опасность — это жестокое внутреннее соперничество среди выживших.

Качество: HDTVRip
Формат: AVI

Видео: 1500 Кбит/с, 720x400, 29.970 fps
Аудио: AC3, 2 ch, 192 Кбит/с
скриншот   скриншот   скриншот   скриншот  

Общее
Полное имя : D:\The.Walking.Dead.S08.400p\The.Walking.Dead.S08E01.400p.avi
Формат : AVI
Формат/Информация : Audio Video Interleave
Размер файла : 571 Мбайт
Продолжительность : 47 м. 10 с.
Общий поток : 1692 Кбит/сек
Программа кодирования : VirtualDubMod 1.5.10.2 (build 2540/release)
Библиотека кодирования : VirtualDubMod build 2540/release

Видео
Идентификатор : 0
Формат : xvid
Идентификатор кодека : xvid
Продолжительность : 47 м. 10 с.
Битрейт : 1491 Кбит/сек
Ширина : 720 пикселей
Высота : 400 пикселей
Соотношение сторон : 16:9
Частота кадров : 24,000 кадра/сек
Бит/(Пиксели*Кадры) : 0.216
Размер потока : 503 Мбайт (88%)

Аудио
Идентификатор : 1
Формат : AC-3
Формат/Информация : Audio Coding 3
Расширение режима : CM (complete main)
Параметр Endianness формата : Big
Идентификатор кодека : 2000
Продолжительность : 47 м. 10 с.
Вид битрейта : Постоянный
Битрейт : 192 Кбит/сек
Каналы : 2 канала
Расположение каналов : Front: L R
Частота : 48,0 КГц
Частота кадров : 31,250 кадров/сек (1536 spf)
Метод сжатия : С потерями
Размер потока : 64,8 Мбайт (11%)
Выравнивание : Разделение по промежуткам
Продолжительность промежутка : 42 мс. (1,00 видеокадр)
Время предзагрузки промежутка : 500 мс.

pb.wtf



Скачать Ходячие мертвецы через торрент http://img12.lostpic.net/2018/02/26/cf83effd481dc029063dc38d6dd136d7.png Скачать фильм Ходячие мертвецы через торрент бесплантно в хорошем качестве Описание: После страшной болезни, превратившей жителей Земли в зомби, небольшая группа пока еще живых людей изо дня в день борется за ... 8.6 10 7
Торрент: Зарегистрирован [2018-04-16 08:59] · скачан: 59 раз
Статус: √ проверено
Размер: 7.99 GB
Как cкачать? Как скачать Ходячие мертвецы через торрент | qTorrent

% Раздел Тема Автор DL S | L
Зарубежные сериалы [ 10.82 GB ] Бойтесь ходячих мертвецов / Fear the Walking Dead / Сезон: 5 / Серии: 1-8 из 16 [2019 HDTVRip 720p] DVO [Kerob] bober100 Скачать
2 | 4
Зарубежные сериалы [ 3.86 GB ] Бойтесь ходячих мертвецов / Fear the Walking Dead / Сезон: 5 / Серии: 1-8 из 16 [2019 HDTVRip] DVO [Kerob] bober100 Скачать
1 | 3
Ходячие мертвецы (The Walking Dead) [ 30.42 GB ] Ходячие мертвецы / The Walking Dead / Сезон: 9 / Серии: 1-8 из 16 [2018 WEBRip 1080p] [MVO] killermax2013 Скачать
1 | 0
Ходячие мертвецы (The Walking Dead) [ 25.94 GB ] Ходячие мертвецы / The Walking Dead / Сезон: 8 / Серии: 1-16 из 16 [2017 WEB-DL 720p] MVO [FOX] bober100 Скачать
1 | 0
Ходячие мертвецы (The Walking Dead) [ 9.16 GB ] Ходячие мертвецы / The Walking Dead / Сезон: 8 / Серии: 1-16 из 16 [2017 WEBRip] MVO [Profix Media] bober100 Скачать
2 | 1
Ходячие мертвецы (The Walking Dead) [ 27.05 GB ] Ходячие мертвецы / The Walking Dead / Сезон: 8 / Серии: 1-16 из 16 [2017-2018 WEBRip 720p] [MVO] killermax2013 Скачать
1 | 0
Ходячие мертвецы (The Walking Dead) [ 9.65 GB ] Ходячие мертвецы / The Walking Dead / Сезон: 8 / Серии: 1-16 из 16 [2017 HDTVRip] DVO [Sunshine Studio] bober100 Скачать
1 | 0


>> Регистрируемся здесь <<






Отзывы и комментарии о схеме читаем и пишем здесь: ---> Отзывы и комментарии о схеме

Новые благодарочки в телеграм довольных пользователей:
скриншот   скриншот   скриншот   скриншот   скриншот
    Дорогой пользователь! Огромная просьба, поблагодарите релизера, оцените раздачу и оставьте свои комментарий, если Вы скачали Ходячие мертвецы через торрент бесплатно! Внесите свою лепту в развитие PiratBit!
    Комментировать посты могут только пользователи прошедшие не сложную регистрацию
    Показать сообщения:    

    Ходячие мертвецы через торрент
    Скачать бесплатно Ходячие мертвецы
    Ходячие мертвецы скачать торрент
    Ходячие мертвецы смотреть онлайн
    Cкачать фильм Ходячие мертвецы бесплатно
    Ходячие мертвецы скачать торрент в хорошем качестве
    Ходячие мертвецы смотреть онлайн бесплатно в хорошем качестве


    Вы не можете начинать темы
    Вы не можете отвечать на сообщения
    Вы не можете редактировать свои сообщения
    Вы не можете удалять свои сообщения
    Вы не можете голосовать в опросах
    Вы не можете прикреплять файлы к сообщениям
    Вы можете скачивать файлы