Ссылка на приватное зеркало нашего сайта всего за 1$. Внимание количество ограничено!!!

2 сезон

iTunes

1 сезон

1

2 сезон

2 сезон

iTunes

1 сезон

RePack

30

Ultimate

ВАЖНО

ИГРА 18+

pack

RePack

MK11
pack

Забери бонус

RePack

jed

!!Акция!!

Alien_Rage

RePack

fifa19

RePack

Assassins Creed: Odyssey

RePack

NEED FOR SPEED™ PAYBACK

4 сезон

9 сезон

Бесстыжие 9 сезон

Все сериалы

все сериалы на PB.wtf

RePack

FAR CRY 5
  

Бойтесь ходячих мертвецов / Fear the Walking Dead / Сезон: 4 / Серии: 1-16 из 16 (Адам Дэвидсон, Кари Скогланд, Стефан Шварц) [2018, ужасы, драма, WEBRip 1080p] MVO [AMC] pb.wtf

Бойтесь ходячих мертвецов через торрент pb.wtf

Размер: 53.92 GB | Добавлен: 2 года 1 мес. назад | Торрент скачан:31 раз
Скачать  

16-04-2018 09:13 Бойтесь ходячих мертвецов Скачать торрент  


Бойтесь ходячих мертвецов / Fear the Walking Dead
✦ Год выпуска: 2018
✦ Страна: США
✦ Жанр: ужасы, драма
✦ Продолжительность: ~ 00:45:00
✦ Перевод: Профессиональный (многоголосый) | AMC
✦ Субтитры: Английские

✦ Режиссер: Адам Дэвидсон, Кари Скогланд, Стефан Шварц

rating

В ролях:

Клифф Кёртис, Ким Диккенс, Алисия Дебнем-Кери, Фрэнк Диллэйн, Рубен Бладес, Мерседес Масон, Колман Доминго, Лоренцо Джеймс Хенри, Элизабет Родригес, Тони Френч

Описание:

Действия сериала происходят параллельно с событиями зомби-апокалипсиса, показанными в сериале «Ходячие мертвецы», но в совершенно другом месте — Лос-Анджелесе. Акцент будет сделан на семейные отношения, в частности, проблемы отцов и детей. История вращается вокруг Шона — разведённого школьного учителя и Нэнси руководительницы женского совета. А так же детей Нэнси: Ника, который борется с наркотической зависимостью и амбициозной дочери Эшли.

✦ Качество: WEBRip 1080p
✦ Формат: MKV

✦ Видео: MPEG-4 AVC, ~ 11200 Кбит/с, 1920x1080, 25 кадр/с
✦ Аудио#1: Русский (АС3, 2 ch, 192 Кбит/с)
✦ Аудио#2: английский (АС3, 6 ch, 384 Кбит/с)
скриншот   скриншот   скриншот  

Общее
Уникальный идентификатор : 188959704719110159230422516736862404546 (0x8E2850BB70B0C697BCE37F9A3B8F3FC2)
Полное имя : D:\FTWD (Season 03) AMC 1080\Fear.the.Walking.Dead.S04E011080p.AMC.mkv
Формат : Matroska
Версия формата : Version 2
Размер файла : 3,96 Гбайт
Продолжительность : 47 м. 8 с.
Режим общего битрейта : Переменный
Общий поток : 12,0 Мбит/сек
Дата кодирования : UTC 2018-04-16 08:29:54
Программа кодирования : mkvmerge v7.8.0 ('River Man') 32bit built on Apr 3 2015 12:11:22
Библиотека кодирования : libebml v1.3.1 + libmatroska v1.4.2

Видео
Идентификатор : 1
Формат : AVC
Формат/Информация : Advanced Video Codec
Профиль формата : High@L4
Параметр CABAC формата : Да
Параметр RefFrames формата : 4 кадра
Идентификатор кодека : V_MPEG4/ISO/AVC
Продолжительность : 47 м. 8 с.
Вид битрейта : Переменный
Битрейт : 11,2 Мбит/сек
Максимальный битрейт : 15,0 Мбит/сек
Ширина : 1920 пикселей
Высота : 1080 пикселей
Соотношение сторон : 16:9
Режим частоты кадров : Постоянный
Частота кадров : 25,000 кадров/сек
Цветовое пространство : YUV
Субдискретизация насыщенности : 4:2:0
Битовая глубина : 8 бит
Тип развёртки : Прогрессивная
Бит/(Пиксели*Кадры) : 0.216
Размер потока : 3,69 Гбайт (93%)
Язык : English
Default : Да
Forced : Нет
Цветовой диапазон : Limited
Основные цвета : BT.709
Характеристики трансфера : BT.709
Коэффициенты матрицы : BT.709

Аудио #1
Идентификатор : 2
Формат : AC-3
Формат/Информация : Audio Coding 3
Расширение режима : CM (complete main)
Параметр Endianness формата : Big
Идентификатор кодека : A_AC3
Продолжительность : 47 м. 8 с.
Вид битрейта : Постоянный
Битрейт : 192 Кбит/сек
Каналы : 2 канала
Расположение каналов : Front: L R
Частота : 48,0 КГц
Частота кадров : 31,250 кадров/сек (1536 spf)
Метод сжатия : С потерями
Размер потока : 64,7 Мбайт (2%)
Язык : Russian
Default : Да
Forced : Нет

Аудио #2
Идентификатор : 3
Формат : AC-3
Формат/Информация : Audio Coding 3
Расширение режима : CM (complete main)
Параметр Endianness формата : Big
Идентификатор кодека : A_AC3
Продолжительность : 47 м. 8 с.
Вид битрейта : Постоянный
Битрейт : 384 Кбит/сек
Каналы : 6 каналов
Расположение каналов : Front: L C R, Side: L R, LFE
Частота : 48,0 КГц
Частота кадров : 31,250 кадров/сек (1536 spf)
Метод сжатия : С потерями
Размер потока : 129 Мбайт (3%)
Язык : English
Default : Нет
Forced : Нет

Текст
Идентификатор : 4
Формат : UTF-8
Идентификатор кодека : S_TEXT/UTF8
Идентификатор кодека/Информация : UTF-8 Plain Text
Язык : English
Default : Нет
Forced : Нет

Внимание! Раздача ведётся путём добавления новых серий; при каждом добавлении создаётся новый торрент. Чтобы начать докачку новой серии, пользователям необходимо сделать следующее:
(1) остановить скачивание,
(2) удалить старый торрент у себя из клиента (старые серии удалять не надо),
(3) скачать новый торрент и запустить его у себя в клиенте вместо старого, при этом указать клиенту путь в старую папку куда и должно происходить скачивание новых серий.
Ваш клиент при этом должен произвести хеширование (проверку) старой папки (если не производит сам - помогите ему сделать это), и будет докачивать только те серии которых у вас ещё нет. Старые серии при этом не удаляются, а продолжают раздаваться!
Eсли вы уже удалили старые серии, то предотвратить повторную закачку старых серий можно, отжав галочку в соответствующих местах при запуске нового торрента. По возможности, желательно не удалять старые серии как можно дольше чтобы релизёр не столько продолжал раздавать старые серии, а смог сконцентрироваться на новых.
pb.wtf



Скачать Бойтесь ходячих мертвецов через торрент http://i77.fastpic.ru/big/2016/0824/a5/ffb9522c251ca652fd736c3bc82fb9a5.png Скачать фильм Бойтесь ходячих мертвецов через торрент бесплантно в хорошем качестве Описание: Действия сериала происходят параллельно с событиями зомби-апокалипсиса, показанными в сериале «Ходячие мертвецы», но в совершенно ... 9.5 10 18
Info! Золотая раздача, скачанное не засчитывается.
Торрент: Зарегистрирован [2018-10-01 10:01] · скачан: 31 раз
Статус: √ проверено
Размер: 53.92 GB
Как cкачать? Как скачать Бойтесь ходячих мертвецов через торрент | qTorrent

% Раздел Тема Автор DL S | L
Зарубежные сериалы [ 9.81 GB ] Бойтесь ходячих мертвецов / Fear the Walking Dead / Сезон: 4 / Серии: 1-16 из 16 [2018 WEBRip] MVO [BaibaKo] bober100 Скачать
1 | 0
Зарубежные сериалы [ 56.93 GB ] Бойтесь ходячих мертвецов / Fear the Walking Dead / Сезон: 4 / Серии: 1-16 из 16 [2018 WEBRip 1080p] MVO [BaibaKo] bober100 Скачать
1 | 0
Зарубежные сериалы [ 28.89 GB ] Бойтесь ходячих мертвецов / Fear the Walking Dead / Сезон: 4 / Серии: 1-16 из 16 [2018 WEBRip 720p] MVO [BaibaKo] bober100 Скачать
1 | 0
Зарубежные сериалы [ 18.68 GB ] Бойтесь ходячих мертвецов / Fear the Walking Dead / Сезон: 4 / Серии: 1-16 из 16 [2018 HDTVRip 720p] MVO [Jaskier] bober100 Скачать
1 | 0
Зарубежные сериалы [ 8.48 GB ] Бойтесь ходячих мертвецов / Fear the Walking Dead / Сезон: 4 / Серии: 1-16 из 16 [2018 HDTVRip] MVO [Jaskier] bober100 Скачать
1 | 0
Зарубежные сериалы [ 20.06 GB ] Бойтесь ходячих мертвецов / Fear the Walking Dead / Сезон: 4 / Серии: 1-16 из 16 [2018 HDTVRip 720p] MVO [ColdFilm] bober100 Скачать
1 | 0
Зарубежные сериалы [ 24.74 GB ] Бойтесь ходячих мертвецов / Fear the Walking Dead / Сезон: 4 / Серии: 1-16 из 16 [2018 WEB-DL 720p] MVO [NewStudio] bober100 Скачать
1 | 0

28-11-2019 20:33  

Отключить всю рекламу на сайте

    Дорогой пользователь! Огромная просьба, поблагодарите релизера, оцените раздачу и оставьте свои комментарий, если Вы скачали Бойтесь ходячих мертвецов через торрент бесплатно! Внесите свою лепту в развитие PiratBit!
    Комментировать посты могут только пользователи прошедшие не сложную регистрацию
    Показать сообщения:    

    Бойтесь ходячих мертвецов через торрент
    Скачать бесплатно Бойтесь ходячих мертвецов
    Бойтесь ходячих мертвецов скачать торрент
    Бойтесь ходячих мертвецов смотреть онлайн
    Cкачать фильм Бойтесь ходячих мертвецов бесплатно
    Бойтесь ходячих мертвецов скачать торрент в хорошем качестве
    Бойтесь ходячих мертвецов смотреть онлайн бесплатно в хорошем качестве


    Вы не можете начинать темы
    Вы не можете отвечать на сообщения
    Вы не можете редактировать свои сообщения
    Вы не можете удалять свои сообщения
    Вы не можете голосовать в опросах
    Вы не можете прикреплять файлы к сообщениям
    Вы можете скачивать файлы