Ссылка на приватное зеркало нашего сайта всего за 1$. Внимание количество ограничено!!!

2 сезон

iTunes

1 сезон

1

2 сезон

2 сезон

iTunes

1 сезон

RePack

30

Новинка

ВАЖНО

ИГРА 18+

pack

RePack

MK11
pack

Забери бонус

RePack

jed

!!Акция!!

Alien_Rage

RePack

fifa19

RePack

Assassins Creed: Odyssey

RePack

NEED FOR SPEED™ PAYBACK

4 сезон

9 сезон

Бесстыжие 9 сезон

Все сериалы

все сериалы на PB.wtf

RePack

FAR CRY 5
  

Клятва / The Oath / Сезон: 1 / Серии: 1-10 из 10 (Джефф Т. Томас) [2018, Драма, криминал, биография, WEB-DLRip] MVO [NewStudio] pb.wtf

Клятва через торрент pb.wtf

Размер: 5.37 GB | Добавлен: 2 года 7 мес. назад | Торрент скачан:46 раз
Скачать  

16-04-2018 09:44 Клятва Скачать торрент  

Клятва / The Oath
Год выпуска: 2018
Страна: США
Жанр: Драма, криминал, биография
Продолжительность: ~00:45:00 серия
Перевод: Профессиональный многоголосый |
Субтитры: отсутствуют

Режиссер: Джефф Т. Томас

rating

В ролях:

Катрина Ло (Karen Beach), Джозеф Джулиан Сория (Ramos), Элизабет Рём (Agent Aria Price), Шон Бин (Tom Hammond), Райан Квантен (Steve Hammond), Кори Хардрикт (Cole Hammond), Арлен Эскарпета (Damon Byrd), Luis Clemente-Rivera (Neckbone's Bodyguard), Роберт Госсетт (Charles Ryder), Клинт Джеймс (Sanders), Исаак Кис (G), Кваме Паттерсон (Neckbone)

Описание:

Полицейский Том Хэммонд живёт двойной жизнью. Страж закона - лидер жестокой преступной группировки «Вороны», состоящей из полицейских. Но наказание неминуемо: о преступной деятельности Хэммонда узнает спецагент ФБР, работающий под прикрытием. Дело доходит до суда, и бывший коп отправляется в тюрьму, получив длительный срок. Но Хэммонд не теряет надежды выйти на свободу и вновь стать лидером банды, отомстив всем, кто его предал.

Качество: WEB-DLRip
Формат: AVI

Видео: XviD, 1300 Кбит/с, 720x400
Аудио#1: Русский MP3, 128 kb/s (2 ch)
Аудио#2: Оригинал MP3, 128 kb/s (2 ch)
скриншот   скриншот   скриншот  

Общее
Полное имя : D:\The.Oath.s01.WEBDLRip.NewStudio.TV\The.Oath.s01e01.WEBDLRip.NewStudio.TV.avi
Формат : AVI
Формат/Информация : Audio Video Interleave
Размер файла : 550 Мбайт
Продолжительность : 49 м. 43 с.
Общий поток : 1546 Кбит/сек
Программа кодирования : VirtualDubMod 1.5.10.2 (build 2540/release)
Библиотека кодирования : VirtualDubMod build 2540/release

Видео
Идентификатор : 0
Формат : MPEG-4 Visual
Профиль формата : Advanced Simple@L5
Параметр BVOP формата : 2
Параметр QPel формата : Да
Параметр GMC формата : Без точки перехода
Параметр матрицы формата : Default (MPEG)
Режим смешивания : Сжатый битовый поток
Идентификатор кодека : XVID
Идентификатор кодека/Подсказка : XviD
Продолжительность : 49 м. 43 с.
Битрейт : 1276 Кбит/сек
Ширина : 720 пикселей
Высота : 400 пикселей
Соотношение сторон : 16:9
Частота кадров : 23,976 (23976/1000) кадра/сек
Цветовое пространство : YUV
Субдискретизация насыщенности : 4:2:0
Битовая глубина : 8 бит
Тип развёртки : Прогрессивная
Метод сжатия : С потерями
Бит/(Пиксели*Кадры) : 0.185
Размер потока : 454 Мбайт (83%)
Библиотека кодирования : XviD 67

Аудио #1
Идентификатор : 1
Формат : MPEG Audio
Версия формата : Version 1
Профиль формата : Layer 3
Режим : Joint stereo
Расширение режима : MS Stereo
Идентификатор кодека : 55
Идентификатор кодека/Подсказка : MP3
Продолжительность : 49 м. 43 с.
Вид битрейта : Постоянный
Битрейт : 128 Кбит/сек
Каналы : 2 канала
Частота : 48,0 КГц
Метод сжатия : С потерями
Размер потока : 45,5 Мбайт (8%)
Выравнивание : Соединение по промежуткам
Продолжительность промежутка : 42 мс. (1,00 видеокадр)
Время предзагрузки промежутка : 504 мс.

Аудио #2
Идентификатор : 2
Формат : MPEG Audio
Версия формата : Version 1
Профиль формата : Layer 3
Режим : Joint stereo
Идентификатор кодека : 55
Идентификатор кодека/Подсказка : MP3
Продолжительность : 49 м. 43 с.
Вид битрейта : Постоянный
Битрейт : 128 Кбит/сек
Каналы : 2 канала
Частота : 48,0 КГц
Метод сжатия : С потерями
Размер потока : 45,5 Мбайт (8%)
Выравнивание : Соединение по промежуткам
Продолжительность промежутка : 42 мс. (1,00 видеокадр)
Время предзагрузки промежутка : 504 мс.
Библиотека кодирования : LAME3.99r
Настройки программы : -m j -V 4 -q 2 -lowpass 17 -b 128

pb.wtf



Скачать Клятва через торрент http://pic1.kartinco.top/images/11/hiz2q.jpg Скачать фильм Клятва через торрент бесплантно в хорошем качестве Описание: Полицейский Том Хэммонд живёт двойной жизнью. Страж закона - лидер жестокой преступной группировки «Вороны», состоящей из ... 8.9 10 7
Торрент: Зарегистрирован [2018-04-16 09:44] · скачан: 46 раз
Статус: √ проверено
Размер: 5.37 GB
Как cкачать? Как скачать Клятва через торрент | qTorrent

% Раздел Тема Автор DL S | L
Зарубежные сериалы [ 14.93 GB ] Клятва / The Oath / Сезон: 2 / Серии: 1-8 из 8 [2019 WEB-DL 1080p] [MVO] killermax2013 Скачать
1 | 0
Зарубежные сериалы [ 15.56 GB ] Клятва / The Oath / Сезон: 2 / Серии: 1-8 из 8 [2019 WEB-DL 1080p] MVO [Jaskier] bober100 Скачать
1 | 0
Зарубежные сериалы [ 15.28 GB ] Клятва / The Oath / Сезон: 2 / Серии 1-8 из 8 [2018 WEBRip 1080p] [MVO] killermax2013 Скачать
1 | 0
Зарубежные сериалы [ 19.55 GB ] Клятва / The Oath / Сезон: 1 / Серии 1-10 из 10 [2018 WEBRip 1080p] [MVO] killermax2013 Скачать
1 | 0
Зарубежные сериалы [ 5.54 GB ] Клятва / The Oath / Сезон: 1 / Серии 1-10 из 10 [2018 WEBRip] [MVO] killermax2013 Скачать
1 | 0
Зарубежные сериалы [ 8.36 GB ] Клятва / The Oath / Сезон: 1 / Серии: 1-10 из 10 [2018 биография WEBRip 720p] MVO [Jaskier] bober100 Скачать
1 | 0
Зарубежные сериалы [ 5.07 GB ] Клятва / The Oath / Сезон: 1 / Серии 1-10 из 10 [2018 WEBRip] MVO [BaibaKo] GEKADOL Скачать
1 | 0

28-11-2019 20:33  

Отключить всю рекламу на сайте

    Дорогой пользователь! Огромная просьба, поблагодарите релизера, оцените раздачу и оставьте свои комментарий, если Вы скачали Клятва через торрент бесплатно! Внесите свою лепту в развитие PiratBit!
    Комментировать посты могут только пользователи прошедшие не сложную регистрацию
    Показать сообщения:    

    Клятва через торрент
    Скачать бесплатно Клятва
    Клятва скачать торрент
    Клятва смотреть онлайн
    Cкачать фильм Клятва бесплатно
    Клятва скачать торрент в хорошем качестве
    Клятва смотреть онлайн бесплатно в хорошем качестве


    Вы не можете начинать темы
    Вы не можете отвечать на сообщения
    Вы не можете редактировать свои сообщения
    Вы не можете удалять свои сообщения
    Вы не можете голосовать в опросах
    Вы не можете прикреплять файлы к сообщениям
    Вы можете скачивать файлы