2 сезон

iTunes

MVO

1

2 сезон

iTunes

iTunes

1 сезон

RePack

30

Новинка

ВАЖНО

ИГРА 18+

pack

RePack

MK11
pack

Легкие деньги

RePack

jed

RePack

fifa19

RePack

RDR2

RePack

NEED FOR SPEED™ PAYBACK

4 сезон

9 сезон

Бесстыжие 9 сезон

Все сериалы

все сериалы на PB.wtf

RePack

FAR CRY 5

Anonymous, добрый вечер, мы не успеваем собрать деньги на оплату серверов за декабрь и январь, помогите нам пожалуйста в это трудное время. В качестве благодарности мы отключим Вам всю рекламу на сайте (укажите свой ник в строку Ваше имя)!

×
  
Magnet ссылка

Ну, здравствуй, Оксана Соколова! (Кирилл Васильев) [2018, комедия, WEB-DLRip, КПК] [iTunes] pb.wtf

Ну, здравствуй, Оксана Соколова! через торрент pb.wtf

Размер: 380 MB | Добавлен: 2 года 9 мес. назад | Торрент скачан:64 раза
Скачать  

16-04-2018 09:52 Ну, здравствуй, Оксана Соколова! Скачать торрент  

Ну, здравствуй, Оксана Соколова!
Год выпуска: 2018
Страна: Россия
Жанр: комедия
Продолжительность: 01:39:54
Перевод: Не требуется | iTunes
Субтитры: отсутствуют

Режиссер: Кирилл Васильев



В ролях:

Виктор Добронравов, Валентина Мазунина, Сергей Бурунов, Борис Дергачев, Алексей Базанов, Александр Стефанцов, Николай Шрайбер, Алексей Медведев, Игорь Гаспарян, Сергей Лавыгин

Описание:

Несостоявшемуся актеру Илье наконец-то повезло - с завтрашнего дня его голос будет звучать в эфире «Мужского радио». Как же не отметить такое событие! Но утром новоиспеченный ведущий не может произнести ни слова - голос после бурной вечеринки пропал совсем. Полчаса до эфира, прайм-тайм, подписанный контракт - Илья в панике... Единственный выход - укол в голосовые связки. Только это, по заверению доктора, может спасти ситуацию. И вот ведущий у микрофона. Все готово к эфиру. Обратный отсчет. Илья приветствует радиослушателей... женским голосом! Став заложником нелепой ситуации, герой идёт на всё, чтобы вернуть голос и не упустить свой шанс.

Качество: WEB-DLRip
Формат: MP4

Видео: Н.264, 640x264 (2.40:1), 23.976 fps, 400 Kbps
Аудио: AAC LC, 48.0 KHz, 2 ch, 128 Kbps
скриншот   скриншот   скриншот  

Общее
Полное имя : D:\Oksana.Sokolova.WEB-DLRip.by.mjjhec.mp4
Формат : MPEG-4
Профиль формата : Base Media
Идентификатор кодека : isom (isom/avc1/iso6)
Размер файла : 380 Мбайт
Продолжительность : 1 ч. 39 м.
Режим общего битрейта : Переменный
Общий поток : 532 Кбит/сек
Дата кодирования : UTC 2018-04-16 07:41:06
Дата пометки : UTC 2018-04-16 07:41:06

Видео
Идентификатор : 1
Формат : AVC
Формат/Информация : Advanced Video Codec
Профиль формата : High@L4.1
Параметр CABAC формата : Да
Параметр RefFrames формата : 10 кадров
Идентификатор кодека : avc1
Идентификатор кодека/Информация : Advanced Video Coding
Продолжительность : 1 ч. 39 м.
Битрейт : 400 Кбит/сек
Максимальный битрейт : 1904 Кбит/сек
Ширина : 640 пикселей
Высота : 264 пикселя
Соотношение сторон : 2,40:1
Режим частоты кадров : Постоянный
Частота кадров : 23,976 (24000/1001) кадра/сек
Цветовое пространство : YUV
Субдискретизация насыщенности : 4:2:0
Битовая глубина : 8 бит
Тип развёртки : Прогрессивная
Бит/(Пиксели*Кадры) : 0.099
Размер потока : 286 Мбайт (75%)
Заголовок : 264@GPAC0.5.2-DEV-rev248-g39d5978-master
Библиотека кодирования : x264 core 146 r2538 121396c
Настройки программы : cabac=1 / ref=10 / deblock=1:-3:-3 / analyse=0x3:0x133 / me=umh / subme=11 / psy=1 / psy_rd=1.00:1.00 / mixed_ref=1 / me_range=48 / chroma_me=1 / trellis=2 / 8x8dct=1 / cqm=0 / deadzone=21,11 / fast_pskip=1 / chroma_qp_offset=-4 / threads=6 / lookahead_threads=1 / sliced_threads=0 / nr=0 / decimate=0 / interlaced=0 / bluray_compat=0 / constrained_intra=0 / bframes=10 / b_pyramid=2 / b_adapt=2 / b_bias=0 / direct=3 / weightb=1 / open_gop=0 / weightp=2 / keyint=240 / keyint_min=23 / scenecut=40 / intra_refresh=0 / rc_lookahead=60 / rc=2pass / mbtree=0 / bitrate=400 / ratetol=1.0 / qcomp=0.60 / qpmin=0 / qpmax=69 / qpstep=4 / cplxblur=20.0 / qblur=0.5 / vbv_maxrate=14000 / vbv_bufsize=14000 / nal_hrd=none / filler=0 / ip_ratio=1.40 / pb_ratio=1.30 / aq=1:1.00
Дата кодирования : UTC 2018-04-16 07:41:06
Дата пометки : UTC 2018-04-16 07:41:14

Аудио
Идентификатор : 2
Формат : AAC
Формат/Информация : Advanced Audio Codec
Профиль формата : LC
Идентификатор кодека : 40
Продолжительность : 1 ч. 39 м.
Вид битрейта : Переменный
Битрейт : 128 Кбит/сек
Максимальный битрейт : 138 Кбит/сек
Каналы : 2 канала
Расположение каналов : Front: L R
Частота : 48,0 КГц
Частота кадров : 46,875 кадров/сек (1024 spf)
Метод сжатия : С потерями
Размер потока : 91,5 Мбайт (24%)
Дата кодирования : UTC 2018-04-16 05:49:03
Дата пометки : UTC 2018-04-16 07:41:14
pb.wtf



Скачать Ну, здравствуй, Оксана Соколова! через торрент http://i105.fastpic.ru/big/2018/0415/01/3834ea19b1b5d21b4b74059c9b403901.jpg Скачать фильм Ну, здравствуй, Оксана Соколова! через торрент бесплантно в хорошем качестве Описание: Несостоявшемуся актеру Илье наконец-то повезло - с завтрашнего дня его голос будет звучать в эфире «Мужского радио». Как же не ... 8.3 10 3
Торрент: Зарегистрирован [2018-04-16 09:52] · скачан: 64 раз
Статус: √ проверено
Размер: 380 MB
Как cкачать? Как скачать Ну, здравствуй, Оксана Соколова! через торрент | UTorrent

% Раздел Тема Автор DL S | L
Наши фильмы 2018-2019 [ 1.46 GB ] Ну здравствуй Оксана Соколова! [2018 WEB-DLRip] bober100 Скачать
4 | 1
Наши фильмы 2018-2019 [ 1.72 GB ] Ну здравствуй Оксана Соколова! [2018 WEB-DLRip-AVC] - ExKinoRay Enigma2010 Скачать
1 | 0
Наши фильмы 2018-2019 [ 745 MB ] Ну здравствуй Оксана Соколова! [2018 WEB-DLRip-AVC] bober100 Скачать
1 | 0
Наши фильмы 2018-2019 [ 745 MB ] Ну здравствуй Оксана Соколова! [2018 WEB-DLRip] bober100 Скачать
1 | 0
Наши фильмы (HD, WEB-DL 720p, 1080p) [ 3.07 GB ] Ну здравствуй Оксана Соколова! [2018 WEB-DL 720p] bober100 Скачать
1 | 0
Наши фильмы (HD, WEB-DL 720p, 1080p) [ 3.43 GB ] Ну здравствуй Оксана Соколова! [2018 WEB-DL 1080p] bober100 Скачать
1 | 0

28-11-2019 20:33  

Отключить всю рекламу на сайте


    Дорогой пользователь! Огромная просьба, поблагодарите релизера, оцените раздачу и оставьте свои комментарий, если Вы скачали Ну, здравствуй, Оксана Соколова! через торрент бесплатно! Внесите свою лепту в развитие PiratBit!
    Комментировать посты могут только пользователи прошедшие не сложную регистрацию
    Показать сообщения:    

    Ну, здравствуй, Оксана Соколова! через торрент
    Скачать бесплатно Ну, здравствуй, Оксана Соколова!
    Ну, здравствуй, Оксана Соколова! скачать торрент
    Ну, здравствуй, Оксана Соколова! смотреть онлайн
    Cкачать фильм Ну, здравствуй, Оксана Соколова! бесплатно
    Ну, здравствуй, Оксана Соколова! скачать торрент в хорошем качестве
    Ну, здравствуй, Оксана Соколова! смотреть онлайн бесплатно в хорошем качестве


    Вы не можете начинать темы
    Вы не можете отвечать на сообщения
    Вы не можете редактировать свои сообщения
    Вы не можете удалять свои сообщения
    Вы не можете голосовать в опросах
    Вы не можете прикреплять файлы к сообщениям
    Вы можете скачивать файлы