Anonymous, доброй ночи, присоединяйтесь к нам в Telegram!, здесь всегда актуальный адрес сайта, оперативная поддержка и многое другое!

>

5.6

iTunes

7.4

MVO

5.7

MVO

1

7.7

1 сезон

6.8

iTunes

7.3

1 сезон

13

6.7

1 сезон

8.3

RePack

30

ULTIMATE

pack

9.9

Лицензия

ВАЖНО

ИГРА 18+

pack

7.3

RePack

MK11

7.7

RePack

jed

7.8

RePack

fifa19

8.5

RePack

RDR2

RePack

NEED FOR SPEED™ PAYBACK

4 сезон

9 сезон

Бесстыжие 9 сезон

Все сериалы

все сериалы на PB.wtf

RePack

FAR CRY 5

Anonymous, доброй ночи, мы катастрофически не успеваем собрать деньги на оплату серверов, помогите нам пожалуйста 5,10,15р., для нас важна любая помощь . В качестве благодарности мы отключим Вам всю рекламу на сайте (укажите свой ник в строку Ваше имя)!

×
  
Magnet ссылка

Полицейский с Рублёвки: Снова дома / Сезон: 3 / Серии: 1-8 из 8 (Илья Куликов) [2018, Драма, комедия, WEBRip] pb.wtf

Полицейский с Рублёвки: Снова дома через торрент pb.wtf

Размер: 5.07 GB | Добавлен: 3 года 5 мес. назад | Торрент скачан:676 раз
Смотреть онлайн Полицейский с Рублёвки: Снова дома | Скачать    Ребята, помогите собрать деньги на оплату серверов!!!

16-04-2018 21:32 Полицейский с Рублёвки: Снова дома Скачать торрент  

Полицейский с Рублёвки: Снова дома
Год выпуска: 2018
Страна: Россия
Жанр: Драма, комедия
Продолжительность: ~ 00:50:00
Субтитры: отсутствуют

Режиссер: Илья Куликов

rating

В ролях:

Александр Петров (II), Сергей Бурунов, Роман Попов, Георгий Клинаев, Ирина Вилкова, Татьяна Бабенкова, Софья Каштанова, Ростислав Гулбис, Сергей Штатнов, Александра Бортич, Александр Дерепко, Светлана Суханова, Мария Безродная, Анна Котова, Велимир Русаков, Константин Быков

Описание:

В третьей части сериала Гриша Измайлов с триумфом возвращается на Рублёвку в новой должности начальника родного отдела. Его радость разделяют все вернувшиеся домой коллеги. Все, кроме одного: бывший начальник Яковлев теперь всего лишь глава оперов. И готов на всё, лишь бы вернуть себе Влacть и сбросить гнёт ненавистного Измайлова.

Качество: WEBRip
Формат: AVI

Видео: XviD, ~ 1536 Кбит/с, 720x336
Аудио: AC3, 2 ch, 192 Кбит/с
скриншот  скриншот  скриншот  

Общее
Полное имя : D:\Policejskij.s.rubliovki.3.2018.WEBRip.Files-x\01.Policejskij.s.rubliovki.3.2018.WEBRip.Files-x.avi
Формат : AVI
Формат/Информация : Audio Video Interleave
Размер файла : 600 Мбайт
Продолжительность : 48 м. 22 с.
Общий поток : 1735 Кбит/сек
Программа кодирования : VirtualDubMod 1.5.10.3 | www.virtualdub-fr.org || (build 2550/release)
Библиотека кодирования : VirtualDubMod build 2550/release

Видео
Идентификатор : 0
Формат : MPEG-4 Visual
Профиль формата : Advanced Simple@L5
Параметр BVOP формата : 1
Параметр QPel формата : Нет
Параметр GMC формата : Без точки перехода
Параметр матрицы формата : Выборочная
Идентификатор кодека : XVID
Идентификатор кодека/Подсказка : XviD
Продолжительность : 48 м. 22 с.
Битрейт : 1533 Кбит/сек
Ширина : 720 пикселей
Высота : 336 пикселей
Соотношение сторон : 2,143
Частота кадров : 25,000 кадров/сек
Цветовое пространство : YUV
Субдискретизация насыщенности : 4:2:0
Битовая глубина : 8 бит
Тип развёртки : Прогрессивная
Метод сжатия : С потерями
Бит/(Пиксели*Кадры) : 0.253
Размер потока : 530 Мбайт (88%)
Библиотека кодирования : XviD 73

Аудио
Идентификатор : 1
Формат : AC-3
Формат/Информация : Audio Coding 3
Расширение режима : CM (complete main)
Параметр Endianness формата : Big
Идентификатор кодека : 2000
Продолжительность : 48 м. 22 с.
Вид битрейта : Постоянный
Битрейт : 192 Кбит/сек
Каналы : 2 канала
Расположение каналов : Front: L R
Частота : 48,0 КГц
Частота кадров : 31,250 кадров/сек (1536 spf)
Метод сжатия : С потерями
Размер потока : 66,4 Мбайт (11%)
Выравнивание : Разделение по промежуткам
Продолжительность промежутка : 40 мс. (1,00 видеокадр)
Время предзагрузки промежутка : 500 мс.

Внимание! Раздача ведётся путём добавления новых серий; при каждом добавлении создаётся новый торрент.
Чтобы начать докачку новой серии, пользователям необходимо сделать следующее:
1. Остановить скачивание;
2. Удалить старый торрент у себя из клиента (старые серии удалять не надо);
3. Скачать новый торрент и запустить его у себя в клиенте вместо старого, при этом указать клиенту путь в старую папку куда и должно происходить скачивание новых серий. Ваш клиент при этом должен произвести хеширование (проверку) старой папки и будет докачивать только те серии, которых у вас ещё нет. Старые серии при этом не удаляются, а продолжают раздаваться! Eсли вы уже удалили старые серии, то предотвратить повторную закачку старых серий можно, отжав галочку в соответствующих местах при запуске нового торрента.
pb.wtf



Скачать Полицейский с Рублёвки: Снова дома через торрент https://pic1.kartinco.top/images/11/etc1f.jpg Скачать, смотреть онлайн Полицейский с Рублёвки: Снова дома бесплантно в хорошем качестве Описание: В третьей части сериала Гриша Измайлов с триумфом возвращается на Рублёвку в новой должности начальника родного отдела. Его ... 9.9 10 13
Info! Золотая раздача, скачанное не засчитывается.
Торрент: Зарегистрирован [2018-04-27 11:11] · скачан: 676 раз
Статус: √ проверено
Размер: 5.07 GB
Как cкачать? Как скачать Полицейский с Рублёвки: Снова дома через торрент | UTorrent

% Раздел Тема Автор DL S | L
TNT serials [ 10.96 GB ] Полицейский с Рублёвки: Снова дома / Сезон: 3 / Серии: 1-8 из 8 [2018 WEB-DL 720p] bober100 Скачать
1 | 0
TNT serials [ 24.2 GB ] Полицейский с Рублёвки: Снова дома / Сезон: 3 / Серии: 1-8 из 8 [2018 HDTV 1080i] bober100 Скачать
1 | 0
TNT serials [ 6.36 GB ] Полицейский с Рублёвки: Снова дома / Сезон: 3 / Серии: 1-8 из 8 [2018 WEB-DLRip-AVC] bober100 Скачать
1 | 0
TNT serials [ 12.34 GB ] Полицейский с Рублёвки: Снова дома / Сезон: 3 / Серии: 1-8 из 8 [2018 HDTVRip 720p] bober100 Скачать
1 | 0
TNT serials [ 6.45 GB ] Полицейский с Рублёвки: Снова дома / Сезон: 3 / Серии: 1-8 из 8 [2018 HDTVRip-AVC] bober100 Скачать
1 | 0
TNT serials [ 4.36 GB ] Полицейский с Рублёвки: Снова дома / Сезон: 3 / Серии: 1-8 из 8 [2018 HDTVRip] bober100 Скачать
3 | 0
TNT serials [ 4.97 GB ] Полицейский с Рублёвки: Снова дома / Сезон: 3 / Серии: 1-8 из 8 [2018 SATRip-AVC] bober100 Скачать
1 | 0

28-11-2019 20:33  

Отключить всю рекламу на сайте

    Дорогой пользователь! Огромная просьба, поблагодарите релизера, оцените раздачу и оставьте свои комментарий, если Вы скачали Полицейский с Рублёвки: Снова дома через торрент бесплатно!
    Комментировать посты могут только пользователи прошедшие не сложную регистрацию
    Показать сообщения:    

    Полицейский с Рублёвки: Снова дома через торрент
    Скачать бесплатно Полицейский с Рублёвки: Снова дома
    Полицейский с Рублёвки: Снова дома скачать торрент
    Полицейский с Рублёвки: Снова дома смотреть онлайн
    Cкачать фильм Полицейский с Рублёвки: Снова дома бесплатно
    Полицейский с Рублёвки: Снова дома скачать торрент в хорошем качестве
    Полицейский с Рублёвки: Снова дома смотреть онлайн бесплатно в хорошем качестве


    Вы не можете начинать темы
    Вы не можете отвечать на сообщения
    Вы не можете редактировать свои сообщения
    Вы не можете удалять свои сообщения
    Вы не можете голосовать в опросах
    Вы не можете прикреплять файлы к сообщениям
    Вы можете скачивать файлы