Ссылка на приватное зеркало нашего сайта всего за 1$. Внимание количество ограничено!!!

2 сезон

iTunes

1 сезон

1

2 сезон

2 сезон

iTunes

1 сезон

RePack

30

Ultimate

ВАЖНО

ИГРА 18+

pack

RePack

MK11
pack

Забери бонус

RePack

jed

!!Акция!!

Alien_Rage

RePack

fifa19

RePack

Assassins Creed: Odyssey

RePack

NEED FOR SPEED™ PAYBACK

4 сезон

9 сезон

Бесстыжие 9 сезон

Все сериалы

все сериалы на PB.wtf

RePack

FAR CRY 5
  

Босх / Bosch / Сезон: 4 / Серии 1-10 из 10 (Джим МакКэй) [2018, триллер, детектив, WEBRip] [DVO] (HamsterStudio) pb.wtf

Босх через торрент pb.wtf

Размер: 4.18 GB | Добавлен: 2 года 7 мес. назад | Торрент скачан:35 раз
Скачать  

17-04-2018 10:10 Босх Скачать торрент  


◈ Босх ◈

Информация о фильме:
✦ Название: Босх
✦ Оригинальное название: Bosch
✦ Год выхода: 2018
✦ Жанр: триллер, детектив
✦ Страна: США
✦ Продолжительность: 10x ~ 00:50:00
✦ Перевод: Любительский (двухголосый) (HamsterStudio)
✦ Субтитры: нет

✦ Режиссер: Джим МакКэй

✦ В ролях: Титус Уэлливер, Джэми Гектор, Эми Акино, Эми Прайс-Фрэнсис, Энни Вершинг, Скотт Уилсон, Лэнс Реддик, Алан Розенберг, Валери Крус, Абрахам Бенруби

Описание фильма: Сериал основан на бестселлере Майкла Коннели о детективе убойного отдела Лос Анджелеса Гарри Босхе, который ведет расследование убийства 13-ти летнего мальчика, в то время как сам обвиняется в убийстве серийного маньяка.


Информация о файле:

✦ Качество: WEBRip
✦ Формат: AVI
✦ Кодек: XvID
✦ Видео: 720x400 (1.80:1), XviD ~1200 kbps, 23.976 fps
✦Аудио: 48 kHz, MP3, 2 ch, ~128.00 kbps
General
Complete name : F:\Bosch (Season 04)\Bosch.S04E01.WEBRip.HamsterStudio.Org.avi
Format : AVI
Format/Info : Audio Video Interleave
File size : 443 MiB
Duration : 50 min 2 s
Overall bit rate : 1 237 kb/s
Writing application : VirtualDubMod 1.5.10.2 (build 2540/release)
Writing library : VirtualDubMod build 2540/release

Video
ID : 0
Format : MPEG-4 Visual
Format profile : Advanced Simple@L5
Format settings : BVOP2
Format settings, BVOP : 2
Format settings, QPel : No
Format settings, GMC : No warppoints
Format settings, Matrix : Default (MPEG)
Codec ID : XVID
Codec ID/Hint : XviD
Duration : 50 min 2 s
Bit rate : 1 100 kb/s
Width : 720 pixels
Height : 400 pixels
Display aspect ratio : 16:9
Frame rate : 23.976 (24000/1001) FPS
Color space : YUV
Chroma subsampling : 4:2:0
Bit depth : 8 bits
Scan type : Progressive
Compression mode : Lossy
Bits/(Pixel*Frame) : 0.159
Stream size : 394 MiB (89%)
Writing library : XviD 73

Audio
ID : 1
Format : MPEG Audio
Format version : Version 1
Format profile : Layer 3
Format settings : Joint stereo / MS Stereo
Mode : Joint stereo
Mode extension : MS Stereo
Codec ID : 55
Codec ID/Hint : MP3
Duration : 50 min 2 s
Bit rate mode : Constant
Bit rate : 128 kb/s
Channel(s) : 2 channels
Sampling rate : 48.0 kHz
Compression mode : Lossy
Stream size : 45.8 MiB (10%)
Alignment : Aligned on interleaves
Interleave, duration : 42 ms (1.00 video frame)
Interleave, preload duratio : 504 ms
скриншот   скриншот   скриншот   скриншот  
pb.wtf



Скачать Босх через торрент http://i104.fastpic.ru/big/2018/0417/91/354e903af01cf3f9d025981581bdf891.jpg Скачать фильм Босх через торрент бесплантно в хорошем качестве Описание фильма: Сериал основан на бестселлере Майкла Коннели о детективе убойного отдела Лос Анджелеса Гарри Босхе, который ведет ... 10 10 1
Торрент: Зарегистрирован [2018-04-17 10:10] · скачан: 35 раз
Статус: √ проверено
Размер: 4.18 GB
Как cкачать? Как скачать Босх через торрент | qTorrent

% Раздел Тема Автор DL S | L
Зарубежные сериалы [ 34.84 GB ] Босх / Бош / Bosch / Сезон: 4 / Серия: 1-10 из 10 [2018 WEB-DL 1080p] DUB [True Dubbing Studio] bober100 Скачать
1 | 0
Зарубежные сериалы [ 12.07 GB ] Босх / Bosch / Сезон: 4 / Серии 1-10 из 10 [2018 WEBRip 720p] [MVO] killermax2013 Скачать
1 | 0

28-11-2019 20:33  

Отключить всю рекламу на сайте

    Дорогой пользователь! Огромная просьба, поблагодарите релизера, оцените раздачу и оставьте свои комментарий, если Вы скачали Босх через торрент бесплатно! Внесите свою лепту в развитие PiratBit!
    Комментировать посты могут только пользователи прошедшие не сложную регистрацию
    Показать сообщения:    

    Босх через торрент
    Скачать бесплатно Босх
    Босх скачать торрент
    Босх смотреть онлайн
    Cкачать фильм Босх бесплатно
    Босх скачать торрент в хорошем качестве
    Босх смотреть онлайн бесплатно в хорошем качестве


    Вы не можете начинать темы
    Вы не можете отвечать на сообщения
    Вы не можете редактировать свои сообщения
    Вы не можете удалять свои сообщения
    Вы не можете голосовать в опросах
    Вы не можете прикреплять файлы к сообщениям
    Вы можете скачивать файлы