Ссылка на приватное зеркало нашего сайта всего за 1$. Внимание количество ограничено!!!

2 сезон

iTunes

1 сезон

1

2 сезон

2 сезон

iTunes

1 сезон

RePack

30

Ultimate

ВАЖНО

ИГРА 18+

pack

RePack

MK11
pack

Забери бонус

RePack

jed

!!Акция!!

Alien_Rage

RePack

fifa19

RePack

Assassins Creed: Odyssey

RePack

NEED FOR SPEED™ PAYBACK

4 сезон

9 сезон

Бесстыжие 9 сезон

Все сериалы

все сериалы на PB.wtf

RePack

FAR CRY 5
  

Хитрость / Обман / Deception / Сезон: 1 / Серии: 1-13 из 13 (Дэвид Наттер, Роб Шейденгланц, Сильвер Три) [2018, драма, WEB-DL 1080p] MVO [NewStudio] pb.wtf

Хитрость через торрент pb.wtf

Размер: 23.23 GB | Добавлен: 1 год 11 мес. назад | Торрент скачан:30 раз
Скачать  

17-04-2018 12:09 Хитрость Скачать торрент  

Хитрость / Обман / Deception
Год выпуска: 2018
Страна: США
Жанр: драма
Продолжительность: ~ 00:42:00 серия
Перевод: Профессиональный многоголосый | NewStudio
Субтитры: Russian (Forced, на надписи)

Режиссер: Дэвид Наттер, Роб Шейденгланц, Сильвер Три

rating

В ролях:

Лайла Робинс, Роберт Рид Мерфи, Рубен Наварро, Амори Ноласко, Ильфенеш Хадера, Джастин Чон, Ленора Кричлоу, Джо Кэрролл, Дэнни Корбо, Сонни Корбо

Описание:

После скандального завершения карьеры известный иллюзионист Кэмерон Блэк начинает помогать ФБР раскрывать необычные преступления, используя свои знания и умения.

Качество: WEB-DL 1080p
Формат: MKV

Видео: 1912x1072 at 23.976 fps, MPEG-4 AVC, ~5200 kbps avg
Аудио#1: Russian: 48 kHz, AC3, 3/2 (L,C,R,l,r) + LFE ch, ~384 kbps avg |Многоголосый закадровый, NewStudio|
Аудио#2: English: 48 kHz, AC3, 3/2 (L,C,R,l,r) + LFE ch, ~384 kbps avg
скриншот   скриншот   скриншот   скриншот  

Общее
Уникальный идентификатор : 300860249780096965863790288079028113751 (0xE257938FC8E5849E3F76D53317EE5157)
Полное имя : D:\Deception.2018.s01.1080p.NewStudio.(Wanterlude)\Deception.2018.s01e01.WEBRip.1080p.NewStudio.(Wanterlude).mkv
Формат : Matroska
Версия формата : Version 4 / Version 2
Размер файла : 1,80 Гбайт
Продолжительность : 43 м. 5 с.
Общий поток : 5988 Кбит/сек
Название фильма : Deception | Ep 01 | NewStudio
Дата кодирования : UTC 2018-03-20 17:20:20
Программа кодирования : mkvmerge v19.0.0 ('Brave Captain') 64-bit
Библиотека кодирования : libebml v1.3.5 + libmatroska v1.4.8

Видео
Идентификатор : 1
Формат : AVC
Формат/Информация : Advanced Video Codec
Профиль формата : High@L4
Параметр CABAC формата : Да
Параметр RefFrames формата : 4 кадра
Идентификатор кодека : V_MPEG4/ISO/AVC
Продолжительность : 43 м. 5 с.
Битрейт : 5218 Кбит/сек
Ширина : 1912 пикселей
Высота : 1072 пикселя
Соотношение сторон : 16:9
Режим частоты кадров : Постоянный
Частота кадров : 23,976 (23976/1000) кадра/сек
Цветовое пространство : YUV
Субдискретизация насыщенности : 4:2:0
Битовая глубина : 8 бит
Тип развёртки : Прогрессивная
Бит/(Пиксели*Кадры) : 0.106
Размер потока : 1,57 Гбайт (87%)
Заголовок : Deception | Ep 01 | NewStudio
Язык : English
Default : Да
Forced : Нет
Цветовой диапазон : Limited
Основные цвета : BT.709
Характеристики трансфера : BT.709
Коэффициенты матрицы : BT.709

Аудио #1
Идентификатор : 2
Формат : AC-3
Формат/Информация : Audio Coding 3
Расширение режима : CM (complete main)
Параметр Endianness формата : Big
Идентификатор кодека : A_AC3
Продолжительность : 43 м. 5 с.
Вид битрейта : Постоянный
Битрейт : 384 Кбит/сек
Каналы : 6 каналов
Расположение каналов : Front: L C R, Side: L R, LFE
Частота : 48,0 КГц
Частота кадров : 31,250 кадров/сек (1536 spf)
Метод сжатия : С потерями
Задержка видео : -42 мс.
Размер потока : 118 Мбайт (6%)
Заголовок : NewStudio | Wanterlude
Язык : Russian
Default : Да
Forced : Да

Аудио #2
Идентификатор : 3
Формат : AC-3
Формат/Информация : Audio Coding 3
Расширение режима : CM (complete main)
Параметр Endianness формата : Big
Идентификатор кодека : A_AC3
Продолжительность : 43 м. 5 с.
Вид битрейта : Постоянный
Битрейт : 384 Кбит/сек
Каналы : 6 каналов
Расположение каналов : Front: L C R, Side: L R, LFE
Частота : 48,0 КГц
Частота кадров : 31,250 кадров/сек (1536 spf)
Метод сжатия : С потерями
Задержка видео : -42 мс.
Размер потока : 118 Мбайт (6%)
Язык : English
Default : Нет
Forced : Нет

Когда раздача ведётся путём добавления новых серий, при каждом добавлении создётся новый торрент. Чтобы начать докачку новой серии, пользователям необходимо сделать следующее:
(1) остановить скачивание,
(2) удалить старый торрент у себя из клиента (старые серии удалять не надо),
(3) скачать новый торрент и запустить его у себя в клиенте вместо старого, при этом указать клиенту путь в старую папку, куда и должно происходить скачивание новых серий.
Ваш клиент при этом должен произвести хеширование (проверку) старой папки (если не производит сам - помогите ему сделать это), и будет докачивать только те серии, которых у вас ещё нет. Старые серии при этом не удаляются, а продолжают раздаваться!
Eсли вы уже удалили старые серии, то предотвратить повторную закачку старых серий можно, отжав галочку в соответсвующих местах при запуске нового торрента. По возможности, желательно не удалять старые серии как можно дольше, чтобы релизёр не столько продолжал раздавать старые серии, а смог сконцентрироваться на новых.
pb.wtf



Скачать Хитрость через торрент http://i103.fastpic.ru/big/2018/0318/39/fe85d0155d18d6efc9c0ffc969ad5739.png Скачать фильм Хитрость через торрент бесплантно в хорошем качестве Описание: После скандального завершения карьеры известный иллюзионист Кэмерон Блэк начинает помогать ФБР раскрывать необычные преступления, ... 10 10 5
Торрент: Зарегистрирован [2018-12-22 05:50] · скачан: 30 раз
Статус: √ проверено
Размер: 23.23 GB
Как cкачать? Как скачать Хитрость через торрент | qTorrent

% Раздел Тема Автор DL S | L
Зарубежные сериалы [ 37.58 GB ] Хитрость / Обман / Deception / Сезон: 1 / Серии: 1-13 из 13 [2018 WEB-DL 1080p] MVO [TVShows] bober100 Скачать
1 | 0
Зарубежные сериалы [ 7.01 GB ] Хитрость / Обман / Deception / Сезон: 1 / Серии: 1-13 из 13 [2018 WEB-DLRip] DUB [ТВ3] bober100 Скачать
1 | 0
Зарубежные сериалы [ 14.13 GB ] Обман / Хитрость / Deception / Сезон: 1 / Серии: 1-13 из 13 [2018 WEB-DL 720p] MVO [Jaskier] bober100 Скачать
1 | 0
Зарубежные сериалы [ 6.54 GB ] Обман / Хитрость / Deception / Сезон: 1 / Серии 1-13 из 13 [2018 WEBRip] MVO [BaibaKo] GEKADOL Скачать
1 | 0
Зарубежные сериалы [ 6.36 GB ] Хитрость / Обман / Deception / Сезон: 1 / Серии 1-13 из 13 [2018 WEB-DLRip] [MVO] killermax2013 Скачать
1 | 0
Зарубежные сериалы [ 37.34 GB ] Хитрость / Обман / Deception / Сезон: 1 / Серии 1-13 из 13 [2018 WEB-DL 1080p] [MVO] killermax2013 Скачать
1 | 0
Зарубежные сериалы [ 6.85 GB ] Хитрость / Обман / Deception / Сезон: 1 / Серии 1-13 из 13 [2018 WEBRip] [MVO] killermax2013 Скачать
1 | 0

28-11-2019 20:33  

Отключить всю рекламу на сайте

    Дорогой пользователь! Огромная просьба, поблагодарите релизера, оцените раздачу и оставьте свои комментарий, если Вы скачали Хитрость через торрент бесплатно! Внесите свою лепту в развитие PiratBit!
    Комментировать посты могут только пользователи прошедшие не сложную регистрацию
    Показать сообщения:    

    Хитрость через торрент
    Скачать бесплатно Хитрость
    Хитрость скачать торрент
    Хитрость смотреть онлайн
    Cкачать фильм Хитрость бесплатно
    Хитрость скачать торрент в хорошем качестве
    Хитрость смотреть онлайн бесплатно в хорошем качестве


    Вы не можете начинать темы
    Вы не можете отвечать на сообщения
    Вы не можете редактировать свои сообщения
    Вы не можете удалять свои сообщения
    Вы не можете голосовать в опросах
    Вы не можете прикреплять файлы к сообщениям
    Вы можете скачивать файлы