Ссылка на приватное зеркало всего за 1$. Внимание количество ограничено!!!

OK

1+1

iTunes

мы

OK

1

WEB-DLRip

Джокер

Пифагор

Ведьмак / The Witcher сериал

iTunes

ПШазам

ОК

Оно 2

iTunes

30
pack

Вам бонус

ВАЖНО

!!Акция!!

Alien_RageХит недели

RePack

Resident Evil 21

ИГРА 18+

pack

RePack

jed

RePack

fifa19

RePack

Assassins Creed: Odyssey

RePack

NEED FOR SPEED™ PAYBACK

4 сезон

9 сезон

Бесстыжие 9 сезон

Все сериалы

все сериалы на PB.wtf

RePack

FAR CRY 5
  

Убийство чести / Honor Killing (Мерседес) [2018, Ужасы, WEBRip 72Op] MVO [КОЛОБОК] pb.wtf

Убийство чести через торрент pb.wtf

Размер: 2.35 GB | Добавлен: 1 год 9 мес. назад | Торрент скачан:15 раз
Скачать  

17-04-2018 15:45 Убийство чести Скачать торрент  

Убийство чести / Honor KillingГод выпуска: 2018
Страна: США
Жанр: Ужасы
Продолжительность: 01:09:35
Перевод: Любительский (многоголосый) | КОЛОБОК
Субтитры: отсутствуют

Режиссер: Мерседес

rating

В ролях:

Тина Альпер, Адам Уэйн Гистарб, Рэйчел Хадасса, Чарльз Дарвин Хепберн, Шон Хоффман, Лорен Джексон, Самуэль Лопес, Джеральд Х. Мкензи, Хулио Куинонес, Майкл Сундин

Описание:

Стараясь смыть с семьи позор, отец убивает собственную дочь, которую обесчестили по пути из библиотеки, но она не погибает... восстав из мёртвых и вооружившись наганом купленным у полицейского-ренегата - она отправляеться в крестовый поход, освобождая женщин из-под ига мужчин.

Качество: WEBRip 72Op
Формат: MKV

Видео: h.264, 4363 Кбит/с, 1280x720
Аудио#1: Русский (AC3, 2 ch, 384 Кбит/с)
скриншот  скриншот  скриншот  

Общее
Уникальный идентификатор : 252038408102973046782174321733212525992 (0xBD9CD4EC43E337FAA4A9E30C09FB55A8)
Полное имя : D:\Honor Killing.2018.Pk.WEBRip.72Op.mkv
Формат : Matroska
Версия формата : Version 2
Размер файла : 2,35 Гбайт
Продолжительность : 1 ч. 9 м.
Режим общего битрейта : Переменный
Общий поток : 4843 Кбит/сек
Дата кодирования : UTC 2018-04-17 00:24:30
Программа кодирования : mkvmerge v8.3.0 ('Over the Horizon') 64bit
Библиотека кодирования : libebml v1.3.1 + libmatroska v1.4.2

Видео
Идентификатор : 1
Формат : AVC
Формат/Информация : Advanced Video Codec
Профиль формата : High@L4.1
Параметр CABAC формата : Да
Параметр RefFrames формата : 4 кадра
Идентификатор кодека : V_MPEG4/ISO/AVC
Продолжительность : 1 ч. 9 м.
Вид битрейта : Переменный
Битрейт : 4363 Кбит/сек
Максимальный битрейт : 5000 Кбит/сек
Ширина : 1280 пикселей
Высота : 720 пикселей
Соотношение сторон : 16:9
Режим частоты кадров : Постоянный
Частота кадров : 23,976 (24000/1001) кадра/сек
Стандарт вещания : Component
Цветовое пространство : YUV
Субдискретизация насыщенности : 4:2:0
Битовая глубина : 8 бит
Тип развёртки : Прогрессивная
Бит/(Пиксели*Кадры) : 0.197
Размер потока : 2,12 Гбайт (90%)
Default : Да
Forced : Нет
Цветовой диапазон : Limited
Основные цвета : BT.709
Характеристики трансфера : BT.709
Коэффициенты матрицы : BT.709

Аудио
Идентификатор : 2
Формат : AC-3
Формат/Информация : Audio Coding 3
Расширение режима : CM (complete main)
Параметр Endianness формата : Big
Идентификатор кодека : A_AC3
Продолжительность : 1 ч. 9 м.
Вид битрейта : Постоянный
Битрейт : 384 Кбит/сек
Каналы : 2 канала
Расположение каналов : Front: L R
Частота : 48,0 КГц
Частота кадров : 31,250 кадров/сек (1536 spf)
Метод сжатия : С потерями
Размер потока : 191 Мбайт (8%)
Default : Да
Forced : Нет

pb.wtf



Скачать Убийство чести через торрент http://img12.lostpic.net/2018/04/17/cd61a8382e8cd56d36de1bda46a6e423.jpg Скачать фильм Убийство чести через торрент бесплантно в хорошем качестве Описание: Стараясь смыть с семьи позор, отец убивает собственную дочь, которую обесчестили по пути из библиотеки, но она не погибает... ... 7.6 10 7
Торрент: Зарегистрирован [2018-04-17 15:47] · скачан: 15 раз
Статус: T временная
Размер: 2.35 GB
Как cкачать? Как скачать Убийство чести через торрент | qTorrent

% Раздел Тема Автор DL S | L
T Фильмы (мультфильмы) cо спонсором показа (Новинки AVI/MKV) [ 1.37 GB ] Убийство чести / Honor Killing [2018 WEBRip] MVO [КОЛОБОК] bober100 Скачать
1 | 0

28-11-2019 20:33  

Отключить всю рекламу на сайте

17-04-2018 18:24 Убийство чести Скачать торрент  

вот это поворот про сюжет:)pb.wtf



17-04-2018 19:37 Убийство чести Скачать торрент  

атас! бабы с пистолетомpb.wtf



18-04-2018 12:53 Убийство чести Скачать торрент  

однаглазая баба спистолетомpb.wtf



18-04-2018 17:32 Убийство чести Скачать торрент  

pb.wtf



    Дорогой пользователь! Огромная просьба, поблагодарите релизера, оцените раздачу и оставьте свои комментарий, если Вы скачали Убийство чести через торрент бесплатно! Внесите свою лепту в развитие PiratBit!
    Комментировать посты могут только пользователи прошедшие не сложную регистрацию
    Показать сообщения:    

    Убийство чести через торрент
    Скачать бесплатно Убийство чести
    Убийство чести скачать торрент
    Убийство чести смотреть онлайн
    Cкачать фильм Убийство чести бесплатно
    Убийство чести скачать торрент в хорошем качестве
    Убийство чести смотреть онлайн бесплатно в хорошем качестве


    Вы не можете начинать темы
    Вы не можете отвечать на сообщения
    Вы не можете редактировать свои сообщения
    Вы не можете удалять свои сообщения
    Вы не можете голосовать в опросах
    Вы не можете прикреплять файлы к сообщениям
    Вы можете скачивать файлы