Лицензия

MVO

1

1 сезон

Лицензия

Лицензия

13

MVO

1 сезон

Deluxe Edition

pack

Рекомендуем

30

Repack

ВАЖНО

ВАЖНО

Ghostwire

RePack

jed

RePack

fifa19

RePack

RDR2

RePack

NEED FOR SPEED™ PAYBACK

RePack

Кинопоиск HD

 Острые козырьки 6 сезон

6 сезон

FAR CRY 6

RePack

Лицензия

MVO

1

1 сезон

1 сезон

Лицензия

  

Выживший / The Revenant (Алехандро Гонсалес Иньярриту) [2015, триллер, драма, приключения, BDRemux 1080p] DUB (rus, ukr) + 3xAVO

Выживший через торрент pb.wtf

Размер: 51.17 GB | Добавлен: 4 года 5 мес. назад | Торрент скачан:13 раз
Смотреть онлайн Выживший | Скачать   

17-04-2018 15:49 Выживший Скачать торрент  

Выживший / The Revenant«До последней капли крови»
Год выпуска: 2015
Страна: США, Гонконг, Тайвань
Жанр: триллер, драма, приключения, вестерн, история
Продолжительность: 02:36:55
Перевод: Дублированный, Авторский
Субтитры: Русские, английские, украинские
Режиссер: Алехандро Гонсалес Иньярриту
В ролях:

Леонардо ДиКаприо (Hugh Glass), Том Харди (John Fitzgerald), Донал Глисон (Captain Andrew Henry), Уилл Поултер (Bridger), Форрест Гудлак (Hawk), Пол Андерсон (Anderson), Кристоффер Йонер (Murphy), Джошуа Бёрдж (Stubby Bill), Дуан Ховард (Elk Dog), Мила Нахеко (Powaqa), Фабрис Адд (Toussaint), Артур РедКлауд (Hikuc)
Описание:
Охотник Хью Гласс серьезно ранен на неизведанных просторах американского Дикого Запада. Товарищ Хью по отряду покорителей новых земель Джон Фицжеральд предательски оставляет его умирать в одиночестве. Теперь у Гласса осталось только одно оружие - его сила воли. Он готов бросить вызов первобытной природе, суровой зиме и враждебным племенам индейцев, только чтобы выжить и отомстить Фицжеральду.
Рейтинг:

MPAA: R - Лицам до 17 лет обязательно присутствие взрослого
Качество: BDRemux 1080p
Формат: MKV
Видео: MPEG-4 AVC, 25474 Кбит/с, 1920x1080
Аудио 1: Русский DTS-HD MA 7.1 4600 kbps - Дубляж (krat11)
Аудио 2: Русский DTS 5.1 768 kbps - Дубляж
Аудио 3: Русский AC3 5.1 640 kbps - Дубляж
Аудио 4: Русский DTS-HD MA 7.1 4644 kbps - Авторский (Живов)
Аудио 5: Русский DTS-HD MA 7.1 4646 kbps - Авторский (Есарев)
Аудио 6: Русский DTS-HD MA 7.1 4737 kbps - Авторский (Сербин)
Аудио 7: Английский DTS-HD MA 7.1 4603 kbps - Оригинал
Аудио 8: Украинский AC3 5.1 448 kbps - Дубляж
Навигация по главам: есть
Оскар, 2016 год
Победитель (3):
Лучшая мужская роль (Леонардо ДиКаприо)
Лучший режиссер (Алехандро Гонсалес Иньярриту)
Лучшая работа оператора
Номинации (9):
Лучший фильм
Лучшая мужская роль второго плана (Том Харди)
Лучшие костюмы
Лучший звук
Лучший монтаж
Лучший монтаж звука
Лучшие визуальные эффекты
Лучший грим и прически
Лучшая работа художника-постановщика

Золотой глобус, 2016 год
Победитель (3):
Лучший фильм (драма)
Лучшая мужская роль (драма) (Леонардо ДиКаприо)
Лучший режиссер (Алехандро Гонсалес Иньярриту)
Номинации (1):
Лучший саундтрек

Британская академия, 2016 год
Победитель (5):
Лучший фильм
Лучшая мужская роль
Лучшая работа оператора
Лучший звук
Премия имени Дэвида Лина за достижения в режиссуре
Номинации (3):
Лучший монтаж
Лучший саундтрек
Лучший грим/прически

Премия Гильдии актеров, 2016 год
Победитель (1):
Лучшая мужская роль (Леонардо ДиКаприо)
Общее
Уникальный идентификатор : 224621373082002585114554333954435584773 (0xA8FC80BB39290F6ABF9B31E4813A1305)
Полное имя : D:\1 РЕМУКС!!!!!\Выживший.BDRemux.mkv
Формат : Matroska
Версия формата : Version 4 / Version 2
Размер файла : 51,2 Гбайт
Продолжительность : 2 ч. 36 м.
Режим общего битрейта : Переменный
Общий поток : 46,7 Мбит/сек
Название фильма : Выживший.BDRemux.thx:SPOMOPS
Дата кодирования : UTC 2018-04-17 04:10:38
Программа кодирования : mkvmerge v8.3.0 ('Over the Horizon') 64bit
Библиотека кодирования : libebml v1.3.1 + libmatroska v1.4.2
Обложка : Yes
Attachments : cover.jpg

Видео
Идентификатор : 1
Формат : AVC
Формат/Информация : Advanced Video Codec
Профиль формата : [email protected]
Настройки формата : CABAC / 2 Ref Frames
Параметр CABAC формата : Да
Параметр RefFrames формата : 2 кадра
Идентификатор кодека : V_MPEG4/ISO/AVC
Продолжительность : 2 ч. 36 м.
Вид битрейта : Переменный
Битрейт : 25,5 Мбит/сек
Ширина : 1920 пикселей
Высота : 1080 пикселей
Соотношение сторон : 16:9
Режим частоты кадров : Постоянный
Частота кадров : 23,976 (24000/1001) кадра/сек
Цветовое пространство : YUV
Субдискретизация насыщенности : 4:2:0
Битовая глубина : 8 бит
Тип развёртки : Прогрессивная
Бит/(Пиксели*Кадры) : 0.512
Размер потока : 27,8 Гбайт (54%)
Язык : English
Default : Да
Forced : Нет

Аудио #1
Идентификатор : 2
Формат : DTS
Формат/Информация : Digital Theater Systems
Профиль формата : MA / Core
Идентификатор кодека : A_DTS
Продолжительность : 2 ч. 36 м.
Вид битрейта : Переменный / Постоянный
Битрейт : 4600 Кбит/сек / 1509 Кбит/сек
Каналы : 8 каналов / 6 каналов
Расположение каналов : Front: L C R, Side: L R, Back: L R, LFE / Front: L C R, Side: L R, LFE
Частота : 48,0 КГц
Частота кадров : 93,750 кадра/сек (512 SPF)
Битовая глубина : 24 бит
Метод сжатия : Без потерь / Lossy
Задержка видео : 7 мс.
Размер потока : 5,02 Гбайт (10%)
Заголовок : Русский - Дубляж
Язык : Russian
Default : Да
Forced : Нет

Аудио #2
Идентификатор : 3
Формат : DTS
Формат/Информация : Digital Theater Systems
Идентификатор кодека : A_DTS
Продолжительность : 2 ч. 36 м.
Вид битрейта : Постоянный
Битрейт : 768 Кбит/сек
Каналы : 6 каналов
Расположение каналов : Front: L C R, Side: L R, LFE
Частота : 48,0 КГц
Частота кадров : 93,750 кадра/сек (512 SPF)
Битовая глубина : 24 бит
Метод сжатия : С потерями
Размер потока : 859 Мбайт (2%)
Заголовок : Русский - Дубляж
Язык : Russian
Default : Нет
Forced : Нет

Аудио #3
Идентификатор : 4
Формат : AC-3
Формат/Информация : Audio Coding 3
Идентификатор кодека : A_AC3
Продолжительность : 2 ч. 36 м.
Вид битрейта : Постоянный
Битрейт : 640 Кбит/сек
Каналы : 6 каналов
Расположение каналов : Front: L C R, Side: L R, LFE
Частота : 48,0 КГц
Частота кадров : 31,250 кадров/сек (1536 SPF)
Битовая глубина : 16 бит
Метод сжатия : С потерями
Размер потока : 716 Мбайт (1%)
Заголовок : Русский - Дубляж
Язык : Russian
ServiceKind/String : Complete Main
Default : Нет
Forced : Нет

Аудио #4
Идентификатор : 5
Формат : DTS
Формат/Информация : Digital Theater Systems
Профиль формата : MA / Core
Идентификатор кодека : A_DTS
Продолжительность : 2 ч. 36 м.
Вид битрейта : Переменный / Постоянный
Битрейт : 4644 Кбит/сек / 1509 Кбит/сек
Каналы : 8 каналов / 6 каналов
Расположение каналов : Front: L C R, Side: L R, Back: L R, LFE / Front: L C R, Side: L R, LFE
Частота : 48,0 КГц
Частота кадров : 93,750 кадра/сек (512 SPF)
Битовая глубина : 24 бит
Метод сжатия : Без потерь / Lossy
Размер потока : 5,07 Гбайт (10%)
Заголовок : Русский АП (Живов)
Язык : Russian
Default : Нет
Forced : Нет

Аудио #5
Идентификатор : 6
Формат : DTS
Формат/Информация : Digital Theater Systems
Профиль формата : MA / Core
Идентификатор кодека : A_DTS
Продолжительность : 2 ч. 36 м.
Вид битрейта : Переменный / Постоянный
Битрейт : 4646 Кбит/сек / 1509 Кбит/сек
Каналы : 8 каналов / 6 каналов
Расположение каналов : Front: L C R, Side: L R, Back: L R, LFE / Front: L C R, Side: L R, LFE
Частота : 48,0 КГц
Частота кадров : 93,750 кадра/сек (512 SPF)
Битовая глубина : 24 бит
Метод сжатия : Без потерь / Lossy
Размер потока : 5,07 Гбайт (10%)
Заголовок : Русский - АП (Есарев)
Язык : Russian
Default : Нет
Forced : Нет

Аудио #6
Идентификатор : 7
Формат : DTS
Формат/Информация : Digital Theater Systems
Профиль формата : MA / Core
Идентификатор кодека : A_DTS
Продолжительность : 34 м. 22 с.
Вид битрейта : Переменный / Постоянный
Битрейт : 4637 Кбит/сек / 1509 Кбит/сек
Каналы : 8 каналов / 6 каналов
Расположение каналов : Front: L C R, Side: L R, Back: L R, LFE / Front: L C R, Side: L R, LFE
Частота : 48,0 КГц
Частота кадров : 93,750 кадра/сек (512 SPF)
Битовая глубина : 24 бит
Метод сжатия : Без потерь / Lossy
Размер потока : 1,11 Гбайт (2%)
Заголовок : Русский - АП (Сербин)
Язык : Russian
Default : Нет
Forced : Нет

Аудио #7
Идентификатор : 8
Формат : DTS
Формат/Информация : Digital Theater Systems
Профиль формата : MA / Core
Идентификатор кодека : A_DTS
Продолжительность : 2 ч. 36 м.
Вид битрейта : Переменный / Постоянный
Битрейт : 4603 Кбит/сек / 1509 Кбит/сек
Каналы : 8 каналов / 6 каналов
Расположение каналов : Front: L C R, Side: L R, Back: L R, LFE / Front: L C R, Side: L R, LFE
Частота : 48,0 КГц
Частота кадров : 93,750 кадра/сек (512 SPF)
Битовая глубина : 24 бит
Метод сжатия : Без потерь / Lossy
Размер потока : 5,03 Гбайт (10%)
Заголовок : Английский - Оригинал
Язык : English
Default : Нет
Forced : Нет

Аудио #8
Идентификатор : 9
Формат : AC-3
Формат/Информация : Audio Coding 3
Идентификатор кодека : A_AC3
Продолжительность : 2 ч. 36 м.
Вид битрейта : Постоянный
Битрейт : 448 Кбит/сек
Каналы : 6 каналов
Расположение каналов : Front: L C R, Side: L R, LFE
Частота : 48,0 КГц
Частота кадров : 31,250 кадров/сек (1536 SPF)
Битовая глубина : 16 бит
Метод сжатия : С потерями
Размер потока : 501 Мбайт (1%)
Заголовок : Украинский - Дубляж
Язык : Ukrainian
ServiceKind/String : Complete Main
Default : Нет
Forced : Нет

Текст #1
Идентификатор : 10
Формат : UTF-8
Идентификатор кодека : S_TEXT/UTF8
Идентификатор кодека/Информация : UTF-8 Plain Text
Продолжительность : 2 ч. 35 м.
Битрейт : 5 бит/сек
ElementCount : 146
Размер потока : 6,05 Кбайт (0%)
Заголовок : Русские - форс.
Язык : Russian
Default : Да
Forced : Нет

Текст #2
Идентификатор : 11
Формат : UTF-8
Идентификатор кодека : S_TEXT/UTF8
Идентификатор кодека/Информация : UTF-8 Plain Text
Продолжительность : 2 ч. 35 м.
Битрейт : 37 бит/сек
ElementCount : 847
Размер потока : 43,0 Кбайт (0%)
Заголовок : Русские
Язык : Russian
Default : Нет
Forced : Нет

Текст #3
Идентификатор : 12
Формат : UTF-8
Идентификатор кодека : S_TEXT/UTF8
Идентификатор кодека/Информация : UTF-8 Plain Text
Продолжительность : 2 ч. 35 м.
Битрейт : 5 бит/сек
ElementCount : 146
Размер потока : 5,76 Кбайт (0%)
Заголовок : Украинские - форс.
Язык : Ukrainian
Default : Нет
Forced : Нет

Текст #4
Идентификатор : 13
Формат : UTF-8
Идентификатор кодека : S_TEXT/UTF8
Идентификатор кодека/Информация : UTF-8 Plain Text
Продолжительность : 2 ч. 35 м.
Битрейт : 38 бит/сек
ElementCount : 846
Размер потока : 44,5 Кбайт (0%)
Заголовок : Украинские
Язык : Ukrainian
Default : Нет
Forced : Нет

Текст #5
Идентификатор : 14
Формат : UTF-8
Идентификатор кодека : S_TEXT/UTF8
Идентификатор кодека/Информация : UTF-8 Plain Text
Продолжительность : 2 ч. 35 м.
Битрейт : 3 бит/сек
ElementCount : 135
Размер потока : 3,56 Кбайт (0%)
Заголовок : Английские - Форс.
Язык : English
Default : Нет
Forced : Нет

Текст #6
Идентификатор : 15
Формат : UTF-8
Идентификатор кодека : S_TEXT/UTF8
Идентификатор кодека/Информация : UTF-8 Plain Text
Продолжительность : 2 ч. 35 м.
Битрейт : 23 бит/сек
ElementCount : 834
Размер потока : 26,6 Кбайт (0%)
Заголовок : Английские
Язык : English
Default : Нет
Forced : Нет

Текст #7
Идентификатор : 16
Формат : UTF-8
Идентификатор кодека : S_TEXT/UTF8
Идентификатор кодека/Информация : UTF-8 Plain Text
Продолжительность : 2 ч. 25 м.
Битрейт : 30 бит/сек
ElementCount : 1275
Размер потока : 32,9 Кбайт (0%)
Заголовок : Английские - SDH
Язык : English
Default : Нет
Forced : Нет

Меню
00:00:00.000 : en:Chapter 1
00:05:04.846 : en:Chapter 2
00:07:58.311 : en:Chapter 3
00:13:18.965 : en:Chapter 4
00:21:10.686 : en:Chapter 5
00:28:21.658 : en:Chapter 6
00:37:07.767 : en:Chapter 7
00:44:00.346 : en:Chapter 8
00:48:14.975 : en:Chapter 9
00:51:42.266 : en:Chapter 10
00:56:51.033 : en:Chapter 11
00:59:50.754 : en:Chapter 12
01:03:31.766 : en:Chapter 13
01:11:52.433 : en:Chapter 14
01:16:36.133 : en:Chapter 15
01:21:22.377 : en:Chapter 16
01:28:31.139 : en:Chapter 17
01:37:29.969 : en:Chapter 18
01:48:44.643 : en:Chapter 19
01:53:08.782 : en:Chapter 20
01:59:05.930 : en:Chapter 21
02:02:56.703 : en:Chapter 22
02:15:45.262 : en:Chapter 23
02:22:51.021 : en:Chapter 24
K-Lexx- писал(а):


Русский DTS-HD MA 7.1 4600 kbps - Дубляж (krat11) - статус раздачи # сомнительно, в лицензии русская аудиодорожка DTS Audio Russian 768 kbps 5.1 / 48 kHz / 768 kbps / 24-bit.



Скачать Выживший через торрент http://i104.fastpic.ru/big/2018/0417/d6/494c3d54cf69bc63a90489cab30f15d6.png Скачать, смотреть онлайн Выживший бесплантно в хорошем качестве Описание: Охотник Хью Гласс серьезно ранен на неизведанных просторах американского Дикого Запада. Товарищ Хью по отряду покорителей новых ... 5 10 1
Торрент: Зарегистрирован [2018-04-17 15:49] · скачан: 13 раз
Статус: # сомнительно
Размер: 51.17 GB
Как cкачать? Как скачать Выживший через торрент | UTorrent

% Раздел Тема Автор DL S | L
Ultra HD (UHD: 2K, 4K, 8K) [ 35.96 GB ] Выживший / The Revenant | DUB + 2xAVO | 2160p sheker187 Скачать
1 | 0
Ultra HD (UHD: 2K, 4K, 8K) [ 52.45 GB ] Выживший / The Revenant | Лицензия | 2160p sheker187 Скачать
1 | 0
Фильмы [HD 720p, 1080p] (Хороший звук DUB, MVO) [ 7.9 GB ] Выживший / The Revenant | DUB | 720p от _denis_100 / NNNB _denis_100 Скачать
1 | 0
Фильмы [HD 720p, 1080p] (Хороший звук DUB, MVO) [ 16.12 GB ] Выживший / The Revenant | DUB | 1080p от NNNB _denis_100 Скачать
1 | 0

28-11-2019 20:33  

Отключить вcю реклaмy на сайте

    Дорогой пользователь! Огромная просьба, поблагодарите релизера, оцените раздачу и оставьте свои комментарий, если Вы скачали Выживший через торрент бесплатно!!
    Комментировать посты могут только пользователи прошедшие не сложную регистрацию
    Показать сообщения:    


    Выживший через торрент
    Скачать бесплатно Выживший
    Выживший скачать торрент
    Выживший смотреть онлайн
    Cкачать фильм Выживший бесплатно
    Выживший скачать торрент в хорошем качестве
    Выживший смотреть онлайн бесплатно в хорошем качестве
    Вы не можете начинать темы
    Вы не можете отвечать на сообщения
    Вы не можете редактировать свои сообщения
    Вы не можете удалять свои сообщения
    Вы не можете голосовать в опросах
    Вы не можете прикреплять файлы к сообщениям
    Вы можете скачивать файлы