Ссылка на приватное зеркало всего за 1$. Внимание количество ограничено!!!

OK

1+1

iTunes

мы

OK

1

WEB-DLRip

Джокер

Пифагор

Ведьмак / The Witcher сериал

iTunes

ПШазам

ОК

Оно 2

iTunes

30
pack

Вам бонус

ВАЖНО

!!Акция!!

Alien_RageХит недели

RePack

Resident Evil 21

ИГРА 18+

pack

RePack

jed

RePack

fifa19

RePack

Assassins Creed: Odyssey

RePack

NEED FOR SPEED™ PAYBACK

4 сезон

9 сезон

Бесстыжие 9 сезон

Все сериалы

все сериалы на PB.wtf

RePack

FAR CRY 5
  

Спутник Юпитера / Jupiter holdja (Корнел Мундруцо) [2017, Фантастика, драма, WEB-DL 720p] MVO [@MUZOBOZ@] pb.wtf

Спутник Юпитера через торрент pb.wtf

Размер: 4.46 GB | Добавлен: 1 год 9 мес. назад | Торрент скачан:179 раз
Скачать  

17-04-2018 16:15 Спутник Юпитера Скачать торрент  

Спутник Юпитера / Jupiter holdjaГод выпуска: 2017
Страна: Венгрия, Германия, Франция
Жанр: Фантастика, драма
Продолжительность: 02:10:42
Перевод: Любительский (многоголосый) | @MUZOBOZ@
Субтитры: английские

Режиссер: Корнел Мундруцо

rating

В ролях:

Мераб Нинидзе, Дьёрдь Черхальми, Моника Бальшаи, Майд Асми, Жомбор Барна, Сабольч Беде Фазекаш, Матьяш Бодор, Сома Боронкай

Описание:

Пытаясь нелегально пересечь границу, молодой беженец Арьян был тяжело ранен. Но вместе с ранением он получил и необыкновенную способность: теперь Ариан может летать. Отправленный в лагерь для беженцев юноша знакомится с доктором Штерном, который, узнав о способностях Ариана, помогает ему выбраться оттуда. Доктор потрясён парнем и ещё не знает, какими неприятностями придётся расплачиваться за эту встречу.

Качество: WEB-DL 720p
Формат: MKV

Видео: H.264, 4 497 kb/s, 1280x536
Аудио#1: Русский (AC3, 2 ch, 384 Кбит/с)
скриншот  скриншот  скриншот  

Общее
Уникальный идентификатор : 194261755215138712339568143320244960464 (0x9225740119F4C22FBE3FE1FD29223CD0)
Полное имя : D:\Jupiter.holdja.2017.P.WEB-DL.72Op_KOSHARA.mkv
Формат : Matroska
Версия формата : Version 2
Размер файла : 4,46 Гбайт
Продолжительность : 2 ч. 10 м.
Режим общего битрейта : Переменный
Общий поток : 4883 Кбит/сек
Дата кодирования : UTC 2018-04-17 05:20:22
Программа кодирования : mkvmerge v8.3.0 ('Over the Horizon') 64bit
Библиотека кодирования : libebml v1.3.1 + libmatroska v1.4.2

Видео
Идентификатор : 1
Формат : AVC
Формат/Информация : Advanced Video Codec
Профиль формата : High@L4.1
Параметр CABAC формата : Да
Параметр RefFrames формата : 4 кадра
Идентификатор кодека : V_MPEG4/ISO/AVC
Продолжительность : 2 ч. 10 м.
Вид битрейта : Переменный
Битрейт : 4497 Кбит/сек
Максимальный битрейт : 5000 Кбит/сек
Ширина : 1280 пикселей
Высота : 536 пикселей
Соотношение сторон : 2,40:1
Режим частоты кадров : Постоянный
Частота кадров : 23,976 (24000/1001) кадра/сек
Стандарт вещания : Component
Цветовое пространство : YUV
Субдискретизация насыщенности : 4:2:0
Битовая глубина : 8 бит
Тип развёртки : Прогрессивная
Бит/(Пиксели*Кадры) : 0.268
Размер потока : 4,02 Гбайт (90%)
Default : Да
Forced : Нет
Цветовой диапазон : Limited
Основные цвета : BT.709
Характеристики трансфера : BT.709
Коэффициенты матрицы : BT.709

Аудио
Идентификатор : 2
Формат : AC-3
Формат/Информация : Audio Coding 3
Расширение режима : CM (complete main)
Параметр Endianness формата : Big
Идентификатор кодека : A_AC3
Продолжительность : 2 ч. 10 м.
Вид битрейта : Постоянный
Битрейт : 384 Кбит/сек
Каналы : 2 канала
Расположение каналов : Front: L R
Частота : 48,0 КГц
Частота кадров : 31,250 кадров/сек (1536 spf)
Метод сжатия : С потерями
Размер потока : 359 Мбайт (8%)
Default : Да
Forced : Нет

pb.wtf



Скачать Спутник Юпитера через торрент http://img12.lostpic.net/2018/04/17/5bb76adb286e5c6137a464041fbef305.jpg Скачать фильм Спутник Юпитера через торрент бесплантно в хорошем качестве Описание: Пытаясь нелегально пересечь границу, молодой беженец Арьян был тяжело ранен. Но вместе с ранением он получил и необыкновенную ... 7.7 10 9
Торрент: Зарегистрирован [2018-04-17 16:15] · скачан: 179 раз
Статус: T временная
Размер: 4.46 GB
Как cкачать? Как скачать Спутник Юпитера через торрент | qTorrent

% Раздел Тема Автор DL S | L
T Фильмы (мультфильмы) cо спонсором показа (Новинки AVI/MKV) [ 2.05 GB ] Спутник Юпитера / Jupiter holdja [2017 WEB-DLRip] MVO [@MUZOBOZ@] bober100 Скачать
1 | 0
T Фильмы (мультфильмы) cо спонсором показа (Новинки AVI/MKV) [ 1.37 GB ] Спутник Юпитера / Jupiter holdja [2017 WEB-DLRip] MVO [@MUZOBOZ@] bober100 Скачать
2 | 0

28-11-2019 20:33  

Отключить всю рекламу на сайте

18-04-2018 06:49 Спутник Юпитера Скачать торрент  

Елки-палки, такое описание и такие скрины pb.wtf



18-04-2018 08:47 Спутник Юпитера Скачать торрент  

почитал кто в ролях, как к логопеду на прием сходил))pb.wtf



18-04-2018 12:52 Спутник Юпитера Скачать торрент  

в ТОЧКУpb.wtf



    Дорогой пользователь! Огромная просьба, поблагодарите релизера, оцените раздачу и оставьте свои комментарий, если Вы скачали Спутник Юпитера через торрент бесплатно! Внесите свою лепту в развитие PiratBit!
    Комментировать посты могут только пользователи прошедшие не сложную регистрацию
    Показать сообщения:    

    Спутник Юпитера через торрент
    Скачать бесплатно Спутник Юпитера
    Спутник Юпитера скачать торрент
    Спутник Юпитера смотреть онлайн
    Cкачать фильм Спутник Юпитера бесплатно
    Спутник Юпитера скачать торрент в хорошем качестве
    Спутник Юпитера смотреть онлайн бесплатно в хорошем качестве


    Вы не можете начинать темы
    Вы не можете отвечать на сообщения
    Вы не можете редактировать свои сообщения
    Вы не можете удалять свои сообщения
    Вы не можете голосовать в опросах
    Вы не можете прикреплять файлы к сообщениям
    Вы можете скачивать файлы