Ссылка на приватное зеркало нашего сайта всего за 1$. Внимание количество ограничено!!!

2 сезон

iTunes

1 сезон

1

2 сезон

2 сезон

iTunes

1 сезон

RePack

30

Новинка

ВАЖНО

ИГРА 18+

pack

RePack

MK11
pack

Забери бонус

RePack

jed

!!Акция!!

Alien_Rage

RePack

fifa19

RePack

Assassins Creed: Odyssey

RePack

NEED FOR SPEED™ PAYBACK

4 сезон

9 сезон

Бесстыжие 9 сезон

Все сериалы

все сериалы на PB.wtf

RePack

FAR CRY 5
  

Дорогой диктатор / Dear Dictator (Лиза Аддарио, Джо Сиракьюз) [2018, комедия, WEB-DL 720p] DUB [iTunes] pb.wtf

Дорогой диктатор через торрент pb.wtf

Раздают: 1 [ 0 KB/s ]
Размер: 3.05 GB | Добавлен: 2 года 7 мес. назад | Торрент скачан:89 раз
Скачать  

18-04-2018 02:46 Дорогой диктатор Скачать торрент  

Дорогой диктатор / Dear DictatorГод выпуска: 2018
Страна: США
Жанр: комедия
Продолжительность: 01:30:20
Перевод: Дублированный | iTunes
Субтитры: отсутствуют

Режиссер: Лиза Аддарио, Джо Сиракьюз

rating

В ролях:

Майкл Кейн, Одейя Раш, Кэти Холмс, Сет Грин, Джейсон Биггз, Адриан

Описание:

Антон Винсент - Диктатор одной из стран карибского бассейна. Татьяна - ученица старшего класса обычной средней школы. После продолжительной переписки, в которой они сдружились на фоне сложностей, возникающих у каждого из них: Он - преследуем бандой повстанцев, намеренных свергнуть его режим, Она - одолеваемая вредными ученицами. Диктатор - решил найти убежище в тихой, как он думал Америке и приехать к Татьяне. В конечном итоге, он обучает мятежную в душе девочку-подростка, как свергнуть режим в своей школе и стать настоящим лидером.

Качество: WEB-DL 720p
Формат: MKV

Видео: MPEG-4 AVC, 4067 kb/s, 1280x688
Аудио#1: Русский (AC3, 6 ch, 384 Кбит/с)
Аудио#2: Английский (AC3, 6 ch, 384 Кбит/с)
скриншот   скриншот   скриншот  

Общее
Уникальный идентификатор : 229207203852550230673880521200869205504 (0xAC6FB3A5075F2F40A1184BD1CAA66600)
Полное имя : D:\D0p0g0y.D1kt4t0p.2O17.D.WeB-DL.72Op.mkv
Формат : Matroska
Версия формата : Version 2
Размер файла : 3,05 Гбайт
Продолжительность : 1 ч. 30 м.
Общий поток : 4838 Кбит/сек
Дата кодирования : UTC 2018-04-10 11:45:52
Программа кодирования : mkvmerge v8.3.0 ('Over the Horizon') 64bit
Библиотека кодирования : libebml v1.3.1 + libmatroska v1.4.2

Видео
Идентификатор : 1
Формат : AVC
Формат/Информация : Advanced Video Codec
Профиль формата : High@L3.1
Параметр CABAC формата : Нет
Параметр RefFrames формата : 2 кадра
Идентификатор кодека : V_MPEG4/ISO/AVC
Продолжительность : 1 ч. 30 м.
Битрейт : 4067 Кбит/сек
Ширина : 1280 пикселей
Высота : 688 пикселей
Соотношение сторон : 1,85:1
Режим частоты кадров : Постоянный
Частота кадров : 23,976 (23976/1000) кадра/сек
Цветовое пространство : YUV
Субдискретизация насыщенности : 4:2:0
Битовая глубина : 8 бит
Тип развёртки : Прогрессивная
Бит/(Пиксели*Кадры) : 0.193
Размер потока : 2,57 Гбайт (84%)
Язык : English
Default : Да
Forced : Нет
Цветовой диапазон : Limited
Основные цвета : BT.709
Характеристики трансфера : BT.709
Коэффициенты матрицы : BT.709

Аудио #1
Идентификатор : 2
Формат : AC-3
Формат/Информация : Audio Coding 3
Расширение режима : CM (complete main)
Параметр Endianness формата : Big
Идентификатор кодека : A_AC3
Продолжительность : 1 ч. 30 м.
Вид битрейта : Постоянный
Битрейт : 384 Кбит/сек
Каналы : 6 каналов
Расположение каналов : Front: L C R, Side: L R, LFE
Частота : 48,0 КГц
Частота кадров : 31,250 кадров/сек (1536 spf)
Метод сжатия : С потерями
Задержка видео : -42 мс.
Размер потока : 248 Мбайт (8%)
Язык : Russian
Default : Да
Forced : Нет

Аудио #2
Идентификатор : 3
Формат : AC-3
Формат/Информация : Audio Coding 3
Расширение режима : CM (complete main)
Параметр Endianness формата : Big
Идентификатор кодека : A_AC3
Продолжительность : 1 ч. 30 м.
Вид битрейта : Постоянный
Битрейт : 384 Кбит/сек
Каналы : 6 каналов
Расположение каналов : Front: L C R, Side: L R, LFE
Частота : 48,0 КГц
Частота кадров : 31,250 кадров/сек (1536 spf)
Метод сжатия : С потерями
Задержка видео : -42 мс.
Размер потока : 248 Мбайт (8%)
Язык : English
Default : Нет
Forced : Нет

Меню
00:00:00.000 : en:Chapter 1
00:12:20.240 : en:Chapter 2
00:24:23.546 : en:Chapter 3
00:35:49.398 : en:Chapter 4
00:48:09.846 : en:Chapter 5
00:59:37.200 : en:Chapter 6
01:11:28.703 : en:Chapter 7
01:26:26.016 : en:Chapter 8

pb.wtf



Скачать Дорогой диктатор через торрент http://i6.imageban.ru/out/2018/03/31/001e43dbded27bc1e8da186dba00f876.png Скачать фильм Дорогой диктатор через торрент бесплантно в хорошем качестве Описание: Антон Винсент - Диктатор одной из стран карибского бассейна. Татьяна - ученица старшего класса обычной средней школы. После ... 8.9 10 8
Торрент: Зарегистрирован [2018-04-18 02:46] · скачан: 89 раз
Статус: √ проверено
Размер: 3.05 GB
Как cкачать? Как скачать Дорогой диктатор через торрент | qTorrent

% Раздел Тема Автор DL S | L

28-11-2019 20:33  

Отключить всю рекламу на сайте

    Дорогой пользователь! Огромная просьба, поблагодарите релизера, оцените раздачу и оставьте свои комментарий, если Вы скачали Дорогой диктатор через торрент бесплатно! Внесите свою лепту в развитие PiratBit!
    Комментировать посты могут только пользователи прошедшие не сложную регистрацию
    Показать сообщения:    

    Дорогой диктатор через торрент
    Скачать бесплатно Дорогой диктатор
    Дорогой диктатор скачать торрент
    Дорогой диктатор смотреть онлайн
    Cкачать фильм Дорогой диктатор бесплатно
    Дорогой диктатор скачать торрент в хорошем качестве
    Дорогой диктатор смотреть онлайн бесплатно в хорошем качестве


    Вы не можете начинать темы
    Вы не можете отвечать на сообщения
    Вы не можете редактировать свои сообщения
    Вы не можете удалять свои сообщения
    Вы не можете голосовать в опросах
    Вы не можете прикреплять файлы к сообщениям
    Вы можете скачивать файлы