Ссылка на приватное зеркало нашего сайта всего за 1$. Внимание количество ограничено!!!

2 сезон

iTunes

1 сезон

1

2 сезон

2 сезон

iTunes

1 сезон

RePack

30

Ultimate

ВАЖНО

ИГРА 18+

pack

RePack

MK11
pack

Забери бонус

RePack

jed

!!Акция!!

Alien_Rage

RePack

fifa19

RePack

Assassins Creed: Odyssey

RePack

NEED FOR SPEED™ PAYBACK

4 сезон

9 сезон

Бесстыжие 9 сезон

Все сериалы

все сериалы на PB.wtf

RePack

FAR CRY 5
  

Мадам / Madame (Аманда Штерс) [2017, драма, комедия, BD Remux 1080p] DUB [iTunes] pb.wtf

Мадам через торрент pb.wtf

Размер: 23.47 GB | Добавлен: 2 года 7 мес. назад | Торрент скачан:25 раз
Скачать  

18-04-2018 07:49 Мадам Скачать торрент  

Мадам / Madame
Год выпуска: 2017
Страна: Франция
Жанр: драма, комедия
Продолжительность: 01:31:25
Перевод: Дублированный | iTunes
Субтитры: Английские

Режиссер: Аманда Штерс

rating

В ролях:

Тони Коллетт, Харви Кейтель, Росси де Пальма, Майкл Смайли, Кристиан Абарт, Сью Канн, Жозефин де ла Буме, Тим Феллингэм, Виолэйн Джилиберт, Том Хьюз

Описание:

Богатая пара в Париже собирает гостей на званый ужин. Ждут мэра Лондона и других аристократов, но за столом 13 приборов. И хозяйка, из суеверия, просит служанку присоединиться к трапезе. Мария оказывается за столом инкогнито, и в нее влюбляется богатый коллекционер искусства.

Качество: BD Remux 1080p
Формат: MKV

Видео: MPEG-4 AVC, 1920x1080, 32.9 Mbit/s, 24.000 fps
Аудио#1: 48 kHz, AC3, 5.1, 384 Kbps | iTunes | RUS |
Аудио#2: 48 kHz, DTS-HD MA, 5.1, 3578 Kbps | Оригинал | ENG |
скриншот   скриншот   скриншот   скриншот   скриншот  

General
Unique ID : 246850671429344795068102093899089699565 (0xB9B5B5C1E403985F51DAE201EE69E2ED)
Complete name : C:Video111Madame.2017.BDREMUX.1080p.ExKinoRay.mkv
Format : Matroska
Format version : Version 4 / Version 2
File size : 23.5 GiB
Duration : 1 h 31 min
Overall bit rate mode : Variable
Overall bit rate : 36.8 Mb/s
Movie name : Madame 2017 from ExKinoRay
Encoded date : UTC 2018-04-18 04:56:32
Writing application : mkvmerge v22.0.0 ('At The End Of The World') 64-bit
Writing library : libebml v1.3.5 + libmatroska v1.4.8

Video
ID : 1
Format : AVC
Format/Info : Advanced Video Codec
Format profile : High@L4.1
Format settings : CABAC / 4 Ref Frames
Format settings, CABAC : Yes
Format settings, ReFrames : 4 frames
Codec ID : V_MPEG4/ISO/AVC
Duration : 1 h 31 min
Bit rate mode : Variable
Bit rate : 32.9 Mb/s
Maximum bit rate : 36.0 Mb/s
Width : 1 920 pixels
Height : 1 080 pixels
Display aspect ratio : 16:9
Frame rate mode : Constant
Frame rate : 24.000 FPS
Color space : YUV
Chroma subsampling : 4:2:0
Bit depth : 8 bits
Scan type : Progressive
Bits/(Pixel*Frame) : 0.661
Stream size : 20.9 GiB (89%)
Language : English
Default : Yes
Forced : No

Audio #1
ID : 2
Format : AC-3
Format/Info : Audio Coding 3
Codec ID : A_AC3
Duration : 1 h 31 min
Bit rate mode : Constant
Bit rate : 384 kb/s
Channel(s) : 6 channels
Channel positions : Front: L C R, Side: L R, LFE
Sampling rate : 48.0 kHz
Frame rate : 31.250 FPS (1536 SPF)
Bit depth : 16 bits
Compression mode : Lossy
Stream size : 250 MiB (1%)
Title : iTunes
Language : Russian
Service kind : Complete Main
Default : Yes
Forced : Yes

Audio #2
ID : 3
Format : DTS
Format/Info : Digital Theater Systems
Format profile : MA / Core
Codec ID : A_DTS
Duration : 1 h 31 min
Bit rate mode : Variable / Constant
Bit rate : 3 578 kb/s / 1 509 kb/s
Channel(s) : 6 channels
Channel positions : Front: L C R, Side: L R, LFE
Sampling rate : 48.0 kHz
Frame rate : 93.750 FPS (512 SPF)
Bit depth : 24 bits
Compression mode : Lossless / Lossy
Stream size : 2.28 GiB (10%)
Title : Original
Language : English
Default : No
Forced : No

Text
ID : 4
Format : UTF-8
Codec ID : S_TEXT/UTF8
Codec ID/Info : UTF-8 Plain Text
Duration : 1 h 24 min
Bit rate : 69 b/s
Count of elements : 1412
Stream size : 42.9 KiB (0%)
Title : Full
Language : English
Default : No
Forced : No

Menu
00:00:00.000 : en:Chapter 1
00:09:23.417 : en:Chapter 2
00:18:29.833 : en:Chapter 3
00:30:22.917 : en:Chapter 4
00:39:29.583 : en:Chapter 5
00:50:54.958 : en:Chapter 6
00:59:48.500 : en:Chapter 7
01:11:21.167 : en:Chapter 8
01:20:24.625 : en:Chapter 9

pb.wtf



Скачать Мадам через торрент http://pic1.kartinco.top/images/11/2zlea.jpg Скачать фильм Мадам через торрент бесплантно в хорошем качестве Описание: Богатая пара в Париже собирает гостей на званый ужин. Ждут мэра Лондона и других аристократов, но за столом 13 приборов. И ... 10 10 4
Торрент: Зарегистрирован [2018-04-18 07:49] · скачан: 25 раз
Статус: √ проверено
Размер: 23.47 GB
Как cкачать? Как скачать Мадам через торрент | qTorrent

% Раздел Тема Автор DL S | L
Фильмы [HD 720p, 1080p] (Хороший звук DUB, MVO) [ 7.69 GB ] Мадам / Madame [2017 BDRip 1080p] bober100 Скачать
1 | 0
Фильмы 2017 [DVDrip, WEB-DLRip, HDrip] (DUB, MVO) [ 1.42 GB ] Мадам / Madame [2017 BDRip] - Twi7ter Скачать
1 | 0
Фильмы 2017 [DVDrip, WEB-DLRip, HDrip] (DUB, MVO) [ 1.42 GB ] Мадам / Madame [2017 BDRip] bober100 Скачать
1 | 0
Лесбиянки [ 856 MB ] Девушки мадам Евы / Les filles de Madame Eva / Madam Eva and her Girls [2017 Feature Lesbian Dildo France DVDRip] Pir@tya2010 Скачать
3 | 0
Порно фильмы HD [ 28.26 GB ] Мадам Ева и ее Подружки / Les Filles De Madame Eva / Madam Eva And Her Girls [2017 18+ Teens MILFs All Girl / Lesbian All Sex Sex Toy Play Feature Threesome WEB-DL 2160p] Pir@tya2010 Скачать
3 | 0
Фильмы 2017 [DVDrip, WEB-DLRip, HDrip] (DUB, MVO) [ 703 MB ] Мадам / Madame [2017 WEB-DLRip ""] coc900 Скачать
1 | 0
Фильмы (WEB-DL 720p, 1080p) [ 3.15 GB ] Мадам / Madame [2017 WEB-DL 1080p] bober100 Скачать
1 | 0

28-11-2019 20:33  

Отключить всю рекламу на сайте

    Дорогой пользователь! Огромная просьба, поблагодарите релизера, оцените раздачу и оставьте свои комментарий, если Вы скачали Мадам через торрент бесплатно! Внесите свою лепту в развитие PiratBit!
    Комментировать посты могут только пользователи прошедшие не сложную регистрацию
    Показать сообщения:    

    Мадам через торрент
    Скачать бесплатно Мадам
    Мадам скачать торрент
    Мадам смотреть онлайн
    Cкачать фильм Мадам бесплатно
    Мадам скачать торрент в хорошем качестве
    Мадам смотреть онлайн бесплатно в хорошем качестве


    Вы не можете начинать темы
    Вы не можете отвечать на сообщения
    Вы не можете редактировать свои сообщения
    Вы не можете удалять свои сообщения
    Вы не можете голосовать в опросах
    Вы не можете прикреплять файлы к сообщениям
    Вы можете скачивать файлы