новый адрес
Ссылка на приватное зеркало всего за 1$. Внимание количество ограничено!!!

iTunes

1+1

iTunes

мы

iTunes

1

iTunes

Чернобыль

iTunes

Ральф против интернета

Лицензия

ПШазам

Лицензия

Оно 2

Лицензия

30
pack

Вам бонус

ВАЖНО

!!Акция!!

Alien_RageХит недели

RePack

Resident Evil 21

ИГРА 18+

pack

RePack

jed

!!Акция!!

Alien_Rage

RePack

fifa19

RePack

Assassins Creed: Odyssey

RePack

NEED FOR SPEED™ PAYBACK

3 сезон

9 сезон

Бесстыжие 9 сезон

Все сериалы

все сериалы на PB.wtf

RePack

FAR CRY 5
Ребята, катастрофически не хватает 1900р. для оплаты серверов за Октябрь (всвязи с блокировками трафик упал в 3 раза), 1-2р., выручайте.
  

Ходячие мертвецы / The Walking Dead / Сезон: 8 / Серии: 1-16 из 16 (Грег Никотеро, Эрнест Р. Дикерсон, Гай Ферленд) [2017, ужасы, драма, WEBRip] MVO [Profix Media] pb.wtf

Ходячие мертвецы через торрент pb.wtf

Раздают: 1 [ 0 KB/s ]
Размер: 9.16 GB | Добавлен: 1 год 7 мес. назад | Торрент скачан:209 раз
Скачать  

18-04-2018 08:26 Ходячие мертвецы Скачать торрент  

☠ Ходячие мертвецы / The Walking Dead ☠
Информация о фильме:

Название: Ходячие мертвецы
Оригинальное название: The Walking Dead
Год выпуска: 2017
Страна: США
Жанр: ужасы, драма
Продолжительность: ~ 00:43:00 серия
Перевод: Профессиональный (многоголосый) | Profix Media
Субтитры: | отсутствуют |

Режиссер: Грег Никотеро, Эрнест Р. Дикерсон, Гай Ферленд

rating

В ролях:

Эндрю Линкольн, Стивен Ян, Чендлер Риггз, Норман Ридус, Мелисса Сюзанн МакБрайд, Лорен Кохэн, Данай Джекесай Гурира, Сонекуа Мартин-Грин, Эмили Кинни, Аланна Мастерсон

Описание:

После страшной болезни, превратившей жителей Земли в зомби, небольшая группа пока еще живых людей изо дня в день борется за выживание в новом, враждебном мире. Под предводительством бывшего полицейского Рика они ищут безопасное для жизни место, но зомби — это не самое страшное, что их ждет, основная опасность — это жестокое внутреннее соперничество среди выживших.

Информация о файле::

Качество:WEBRip
Формат: AVI
Видео кодек: XviD
Аудио кодек: MP3

Видео: ~ 1500 kbps | 720x400 (16:9) | 23.976
Аудио#1 Rus: MP3 | 48.0 KHz | 2 ch | 128 kbps
Аудио#2 Eng: MP3 | 48.0 KHz | 2 ch | 128 kbps


скриншот   скриншот   скриншот   скриншот  

Общее
Полное имя : E:\T.W.D.S08.WEBRip.RusEng.Profix.Media\The.Walking.Dead.S08E01.WEBRip.RusEng.Profix.Media.L.avi
Формат : AVI
Формат/Информация : Audio Video Interleave
Размер файла : 601 Мбайт
Продолжительность : 47 м. 14 с.
Общий поток : 1777 Кбит/сек
Программа кодирования : VirtualDubMod 1.5.10.3 (build 2550/release)
Библиотека кодирования : VirtualDubMod build 2550/release

Видео
Идентификатор : 0
Формат : MPEG-4 Visual
Профиль формата : Advanced Simple@L5
Настройки формата : BVOP1
Параметр BVOP формата : 1
Параметр QPel формата : Нет
Параметр GMC формата : Без точки перехода
Параметр матрицы формата : Default (H.263)
Идентификатор кодека : XVID
Идентификатор кодека/Подсказка : XviD
Продолжительность : 47 м. 14 с.
Битрейт : 1440 Кбит/сек
Ширина : 720 пикселей
Высота : 400 пикселей
Соотношение сторон : 16:9
Частота кадров : 23,976 (24000/1001) кадра/сек
Цветовое пространство : YUV
Субдискретизация насыщенности : 4:2:0
Битовая глубина : 8 бит
Тип развёртки : Прогрессивная
Метод сжатия : С потерями
Бит/(Пиксели*Кадры) : 0.209
Размер потока : 487 Мбайт (81%)
Библиотека кодирования : XviD 1.2.1 (UTC 2008-12-04)

Аудио #1
Идентификатор : 1
Формат : MPEG Audio
Версия формата : Version 1
Профиль формата : Layer 3
Настройки формата : Joint stereo / MS Stereo
Идентификатор кодека : 55
Идентификатор кодека/Подсказка : MP3
Продолжительность : 47 м. 14 с.
Вид битрейта : Постоянный
Битрейт : 128 Кбит/сек
Каналы : 2 канала
Частота : 48,0 КГц
Метод сжатия : С потерями
Размер потока : 43,3 Мбайт (7%)
Выравнивание : Соединение по промежуткам

Аудио #2
Идентификатор : 2
Формат : MPEG Audio
Версия формата : Version 1
Профиль формата : Layer 3
Настройки формата : Joint stereo / MS Stereo
Идентификатор кодека : 55
Идентификатор кодека/Подсказка : MP3
Продолжительность : 47 м. 14 с.
Вид битрейта : Постоянный
Битрейт : 128 Кбит/сек
Каналы : 2 канала
Частота : 48,0 КГц
Метод сжатия : С потерями
Размер потока : 43,3 Мбайт (7%)
Выравнивание : Соединение по промежуткам

pb.wtf



Скачать Ходячие мертвецы через торрент http://pic1.kartinco.top/images/11/6wxh2.jpg Скачать фильм Ходячие мертвецы через торрент бесплантно в хорошем качестве Описание: После страшной болезни, превратившей жителей Земли в зомби, небольшая группа пока еще живых людей изо дня в день борется за ... 10 10 9
Info! Золотая раздача, скачанное не засчитывается.
Торрент: Зарегистрирован [2018-04-18 08:26] · скачан: 209 раз
Статус: √ проверено
Размер: 9.16 GB
Как cкачать? Как скачать Ходячие мертвецы через торрент | qTorrent

% Раздел Тема Автор DL S | L
Ходячие мертвецы (The Walking Dead) [ 25.94 GB ] Ходячие мертвецы / The Walking Dead / Сезон: 8 / Серии: 1-16 из 16 [2017 WEB-DL 720p] MVO [FOX] bober100 Скачать
1 | 0
Ходячие мертвецы (The Walking Dead) [ 27.05 GB ] Ходячие мертвецы / The Walking Dead / Сезон: 8 / Серии: 1-16 из 16 [2017-2018 WEBRip 720p] [MVO] killermax2013 Скачать
1 | 0
Ходячие мертвецы (The Walking Dead) [ 8.87 GB ] Ходячие мертвецы / The Walking Dead / Сезон: 8 / Серии: 1-16 из 16 [2017 WEB-DLRip] MVO [LostFilm] bober100 Скачать
1 | 1
Ходячие мертвецы (The Walking Dead) [ 30.8 GB ] Ходячие мертвецы / The Walking Dead / Сезон: 8 / Серии: 1-16 из 16 [2017 WEB-DL 1080p] MVO [FOX] bober100 Скачать
2 | 0
Ходячие мертвецы (The Walking Dead) [ 22.68 GB ] Ходячие мертвецы / The Walking Dead / Сезон: 8 / Серии: 1-16 из 16 [2017 HDTVRip 720p] MVO [ColdFilm] bober100 Скачать
1 | 0
Ходячие мертвецы (The Walking Dead) [ 26.16 GB ] Ходячие мертвецы / The Walking Dead / Сезон: 8 / Серии: 1-16 из 16 [2017 WEB-DL 720p] MVO [NewStudio] bober100 Скачать
1 | 0
Ходячие мертвецы (The Walking Dead) [ 30.14 GB ] Ходячие мертвецы / The Walking Dead / Сезон: 8 / Серии: 1-16 из 16 [2017 WEBRip 720p] MVO [BaibaKo] bober100 Скачать
1 | 0


>> Переходим по ссылке <<
Автоматически подгузится скрипт который настроит ваш браузер на выигрыш!!
После настройки браузера вероятность выигрыша увеличется в 4.1-4,6 раза.
В течение 6 секунд вам откроется настроенный интерфейс казино, с повышенной вероятностью выигрыша.






Отзывы и комментарии о схеме читаем и пишем здесь: ---> Отзывы и комментарии о схеме

Новые благодарочки в телеграм довольных пользователей:
скриншот   скриншот   скриншот   скриншот   скриншот
    Дорогой пользователь! Огромная просьба, поблагодарите релизера, оцените раздачу и оставьте свои комментарий, если Вы скачали Ходячие мертвецы через торрент бесплатно! Внесите свою лепту в развитие PiratBit!
    Комментировать посты могут только пользователи прошедшие не сложную регистрацию
    Показать сообщения:    

    Ходячие мертвецы через торрент
    Скачать бесплатно Ходячие мертвецы
    Ходячие мертвецы скачать торрент
    Ходячие мертвецы смотреть онлайн
    Cкачать фильм Ходячие мертвецы бесплатно
    Ходячие мертвецы скачать торрент в хорошем качестве
    Ходячие мертвецы смотреть онлайн бесплатно в хорошем качестве


    Вы не можете начинать темы
    Вы не можете отвечать на сообщения
    Вы не можете редактировать свои сообщения
    Вы не можете удалять свои сообщения
    Вы не можете голосовать в опросах
    Вы не можете прикреплять файлы к сообщениям
    Вы можете скачивать файлы