новый адрес
Ссылка на приватное зеркало всего за 1$. Внимание количество ограничено!!!

iTunes

1+1

iTunes

мы

WEB-DL

1

iTunes

Чернобыль

iTunes

Ральф против интернета

Лицензия

ПШазам

Лицензия

Оно 2

Лицензия

30
pack

Вам бонус

ВАЖНО

!!Акция!!

Alien_RageХит недели

RePack

Resident Evil 21

ИГРА 18+

pack

RePack

jed

!!Акция!!

Alien_Rage

RePack

fifa19

RePack

Assassins Creed: Odyssey

RePack

NEED FOR SPEED™ PAYBACK

3 сезон

9 сезон

Бесстыжие 9 сезон

Все сериалы

все сериалы на PB.wtf

RePack

FAR CRY 5
Ребята, катастрофически не хватает 1900р. для оплаты серверов за Октябрь (всвязи с блокировками трафик упал в 3 раза), 1-2р., выручайте.
  

Встреча со шпионом / Spotkanie ze szpiegiem (Ян Батори / Jan Batory) [1964, Польша, детектив, DVDRip от AVP Studio] Dub pb.wtf

Встреча со шпионом через торрент pb.wtf

Размер: 1.09 GB | Добавлен: 1 год 7 мес. назад | Торрент скачан:23 раза
Скачать  

18-04-2018 09:09 Встреча со шпионом Скачать торрент  

Встреча со шпионом
Страна: Польша
Студия: Zespol Filmowy "Syrena"

Жанр: детектив
Год выпуска: 1964
Продолжительность: 01:41:25

Перевод: Профессиональный (полное дублирование)
Субтитры: нет
Оригинальная аудиодорожка: нет

Режиссер: Ян Батори / Jan Batory

В ролях:
Беата Тышкевич / Beata Tyszkiewicz (Мария Полинская / Maria Polinska) дублирует Наталья Фатеева, Катажина Ланевская /Katarzyna Laniewska (Бася Гедровская / Basia Giedrowska) дублирует Г.Самохина, Игнаций Маховский /Ignacy Machowski (Бернард /Bernard) дублирует Михаил Глузский, Станислав Микульский /Stanislaw Mikulski (Лейтенант Бачный/Lt. Baczny) дублирует Ю.Боголюбов, Збигнев Запасевич /Zbigniew Zapasiewicz (Капитан Крез / Capt. Kres) дублирует Эдуард Бредун, Ежи Вальчак/ Jerzy Walczak (Зигмунд /Zygmunt) дублирует В.Ферапонтов, Хенрик Бонк/Henryk Bak (Майор Люба/Maj. Luba) дублирует А.Толбузин, Станислав Гронковский/Stanislaw Gronkowski (Людвиг Митула/Ludwik Mitula) и другие.
Об актёрах подробней

Описание:
Иностранная разведка засылает на территорию Польши шпиона под именем Бернард. Служба польской радиолокации запеленговывает место приземления шпиона. Контрразведка начинает следить за действиями Бернарда, и вскоре трое оперативников обнаруживают сообщницу шпиона медсестру Марию…
Этот знаменитый шпионский триллер Яна Баторы, стал лидером проката всех европейских соцстран. Успех его в СССР был столь велик, что приняли решение создать аналогичную советскую картину. В 1965-1966 годах по мотивам польского детектива режиссер Анатолий Бобровский снял фильм "Человек без паспорта" с Владимиром Заманским в главной роли...

Исходник: DVD5 R5
Тип релиза: DVDRip
Контейнер: AVI

Видео: 688x512 (4:3), 25 fps, XviD ~ 1104 kbps avg, 0.133 bit/pixel
Аудио: 48 kHz, Dolby Digital AC3 2.0, 192 kbps

Раздача от:
Общее
Полное имя : Bezmolvnye.sledy.1961.DVDRip_[New-team]_by_AVP_Studio.avi
Формат : AVI
Формат/Информация : Audio Video Interleave
Размер файла : 745 Мбайт
Продолжительность : 1 ч. 19 м.
Общий поток : 1306 Кбит/сек
Программа кодирования : VirtualDubMod 1.5.10.3 | www.virtualdub-fr.org || (build 2550/release)
Библиотека кодирования : VirtualDubMod build 2550/release

Видео
Идентификатор : 0
Формат : MPEG-4 Visual
Профиль формата : Advanced Simple@L5
Настройки формата : BVOP1 / Custom Matrix
Параметр BVOP формата : 1
Параметр QPel формата : Нет
Параметр GMC формата : Без точки перехода
Параметр матрицы формата : Выборочная
Идентификатор кодека : XVID
Идентификатор кодека/Подсказка : XviD
Продолжительность : 1 ч. 19 м.
Битрейт : 1104 Кбит/сек
Ширина : 672 пикселя
Высота : 496 пикселей
Соотношение сторон : 4:3
Частота кадров : 25,000 кадров/сек
Цветовое пространство : YUV
Субдискретизация насыщенности : 4:2:0
Битовая глубина : 8 бит
Тип развёртки : Прогрессивная
Метод сжатия : С потерями
Бит/(Пиксели*Кадры) : 0.133
Размер потока : 630 Мбайт (85%)
Библиотека кодирования : XviD 73

Аудио
Идентификатор : 1
Формат : AC-3
Формат/Информация : Audio Coding 3
Идентификатор кодека : 2000
Продолжительность : 1 ч. 19 м.
Вид битрейта : Постоянный
Битрейт : 192 Кбит/сек
Каналы : 2 канала
Расположение каналов : Front: L R
Частота : 48,0 КГц
Частота кадров : 31,250 кадров/сек (1536 SPF)
Битовая глубина : 16 бит
Метод сжатия : С потерями
Размер потока : 109 Мбайт (15%)
Выравнивание : Разделение по промежуткам
Продолжительность промежутка : 40 мс. (1,00 видеокадр)
Время предзагрузки промежутка : 500 мс
pb.wtf



Скачать Встреча со шпионом через торрент http://i3.imageban.ru/out/2018/04/16/e38f8a66a91f7be40176c0eae7d439cd.png Скачать фильм Встреча со шпионом через торрент бесплантно в хорошем качестве Описание:Иностранная разведка засылает на территорию Польши шпиона под именем Бернард. Служба польской радиолокации запеленговывает место ... 5 10 1
Торрент: Зарегистрирован [2018-04-18 09:09] · скачан: 23 раз
Статус: √ проверено
Размер: 1.09 GB
Как cкачать? Как скачать Встреча со шпионом через торрент | qTorrent

% Раздел Тема Автор DL S | L
Фильмы до 2000 г. [ 1.09 GB ] Встреча со шпионом / Spotkanie ze szpiegiem [1964 Польша DVDRip-AVC от AVP Studio] Dub AVP Studio Скачать
1 | 0

28-11-2019 20:33  

Отключить всю рекламу на сайте

22-04-2018 15:12 Встреча со шпионом Скачать торрент  

Спасибо огромное за такую редкость ! Побольше бы таких раритетов ...pb.wtf



    Дорогой пользователь! Огромная просьба, поблагодарите релизера, оцените раздачу и оставьте свои комментарий, если Вы скачали Встреча со шпионом через торрент бесплатно! Внесите свою лепту в развитие PiratBit!
    Комментировать посты могут только пользователи прошедшие не сложную регистрацию
    Показать сообщения:    

    Встреча со шпионом через торрент
    Скачать бесплатно Встреча со шпионом
    Встреча со шпионом скачать торрент
    Встреча со шпионом смотреть онлайн
    Cкачать фильм Встреча со шпионом бесплатно
    Встреча со шпионом скачать торрент в хорошем качестве
    Встреча со шпионом смотреть онлайн бесплатно в хорошем качестве


    Вы не можете начинать темы
    Вы не можете отвечать на сообщения
    Вы не можете редактировать свои сообщения
    Вы не можете удалять свои сообщения
    Вы не можете голосовать в опросах
    Вы не можете прикреплять файлы к сообщениям
    Вы можете скачивать файлы