Ссылка на приватное зеркало нашего сайта всего за 1$. Внимание количество ограничено!!!

2 сезон

iTunes

1 сезон

1

2 сезон

2 сезон

iTunes

1 сезон

RePack

30

Ultimate

ВАЖНО

ИГРА 18+

pack

RePack

MK11
pack

Забери бонус

RePack

jed

!!Акция!!

Alien_Rage

RePack

fifa19

RePack

Assassins Creed: Odyssey

RePack

NEED FOR SPEED™ PAYBACK

4 сезон

9 сезон

Бесстыжие 9 сезон

Все сериалы

все сериалы на PB.wtf

RePack

FAR CRY 5
  

Банши / Banshee / Сезон: 4 / Серии: 1-8 из 8 (Грег Яйтанс, Оле Кристиан Мадсен, С.Дж. Кларксон) [2016, боевик, триллер, драма, криминал, детектив, HDTVRip] MVO [Амедиа] pb.wtf

Банши через торрент pb.wtf

Размер: 4.74 GB | Добавлен: 2 года 7 мес. назад | Торрент скачан:200 раз
Скачать  

18-04-2018 17:18 Банши Скачать торрент  

Банши / BansheeИнформация о фильме:
✦ Название: Банши
✦ Оригинальное название: Banshee
✦ Год выпуска: 2016
✦ Страна: США
✦ Жанр: боевик, триллер, драма, криминал, детектив
✦ Продолжительность: ~ 00:50:00 серия
✦ Перевод: Профессиональный многоголосый | Амедиа
✦ Субтитры: | русские (Амедиа) |

✦ Режиссер: Грег Яйтанс, Оле Кристиан Мадсен, С.Дж. Кларксон

rating

В ролях:

Триесте Келли Данн, Мэтт Сервитто, Энтони Старр, Рас Блэквелл, Ивана Миличевич, Райанн Шэйн, Фрэнки Фэйзон, Деметриус Гросс, Мэттью Ройч, Хун Ли, Ульрих Томсен, Кристофер Козорт, Дерек Сесил, Стив Култер, Джозеф Майсснер и др.

Описание:

Лжешерифа Лукаса Худа и его бригаду ждут новые испытания и передряги, которые опять потребуют балансировать по обе стороны закона. А еще в последнем сезоне появляется харизматичный персонаж – сексуальная и поразительно безрассудная криминалистка ФБР, не без греха. Итак, Худ, Кэрри, Проктор и банда возвращаются, чтобы вступить в кульминационную гонку под названием “все или ничего”.

Информация о файле:

✦ Качество: HDTVRip
✦ Формат: AVI

✦ Видео: ~ 1500 kbps | 720x400 (16:9) | 23.976
✦ Аудио#1 Rus: MP3 | 48.0 KHz | 2 ch | 128 kbps
А✦ удио#2 Eng: MP3 | 48.0 KHz | 2 ch | 128 kbps


скриншот   скриншот   скриншот   скриншот  

Общее
Полное имя : D:\Banshee (Season 04) Amedia\Banshee.[S04E01].XviD.Amedia.[qqss44].avi
Формат : AVI
Формат/Информация : Audio Video Interleave
Размер файла : 700 Мбайт
Продолжительность : 57 м. 33 с.
Общий поток : 1700 Кбит/сек
Программа кодирования : VirtualDubMod 1.5.10.3 | www.virtualdub-fr.org || (build 2550/release)
Библиотека кодирования : VirtualDubMod build 2550/release

Видео
Идентификатор : 0
Формат : MPEG-4 Visual
Профиль формата : Advanced Simple@L5
Параметр BVOP формата : 2
Параметр QPel формата : Нет
Параметр GMC формата : Без точки перехода
Параметр матрицы формата : Default (MPEG)
Идентификатор кодека : XVID
Идентификатор кодека/Подсказка : XviD
Продолжительность : 57 м. 33 с.
Битрейт : 1430 Кбит/сек
Ширина : 720 пикселей
Высота : 400 пикселей
Соотношение сторон : 16:9
Частота кадров : 23,976 (23976/1000) кадра/сек
Цветовое пространство : YUV
Субдискретизация насыщенности : 4:2:0
Битовая глубина : 8 бит
Тип развёртки : Прогрессивная
Метод сжатия : С потерями
Бит/(Пиксели*Кадры) : 0.207
Размер потока : 589 Мбайт (84%)
Библиотека кодирования : XviD 73

Аудио #1
Идентификатор : 1
Формат : MPEG Audio
Версия формата : Version 1
Профиль формата : Layer 3
Режим : Joint stereo
Расширение режима : MS Stereo
Идентификатор кодека : 55
Идентификатор кодека/Подсказка : MP3
Продолжительность : 57 м. 33 с.
Вид битрейта : Постоянный
Битрейт : 128 Кбит/сек
Каналы : 2 канала
Частота : 48,0 КГц
Метод сжатия : С потерями
Размер потока : 52,7 Мбайт (8%)
Выравнивание : Соединение по промежуткам
Продолжительность промежутка : 42 мс. (1,00 видеокадр)
Время предзагрузки промежутка : 504 мс.

Аудио #2
Идентификатор : 2
Формат : MPEG Audio
Версия формата : Version 1
Профиль формата : Layer 3
Режим : Joint stereo
Расширение режима : MS Stereo
Идентификатор кодека : 55
Идентификатор кодека/Подсказка : MP3
Продолжительность : 57 м. 33 с.
Вид битрейта : Постоянный
Битрейт : 128 Кбит/сек
Каналы : 2 канала
Частота : 48,0 КГц
Метод сжатия : С потерями
Размер потока : 52,7 Мбайт (8%)
Выравнивание : Соединение по промежуткам
Продолжительность промежутка : 42 мс. (1,00 видеокадр)
Время предзагрузки промежутка : 504 мс.

pb.wtf



Скачать Банши через торрент http://pic1.kartinco.top/images/11/imh7y.jpg Скачать фильм Банши через торрент бесплантно в хорошем качестве Описание: Лжешерифа Лукаса Худа и его бригаду ждут новые испытания и передряги, которые опять потребуют балансировать по обе стороны ... 8.2 10 5
Торрент: Зарегистрирован [2018-04-18 17:18] · скачан: 200 раз
Статус: √ проверено
Размер: 4.74 GB
Как cкачать? Как скачать Банши через торрент | qTorrent

% Раздел Тема Автор DL S | L
Зарубежные сериалы [ 7.64 GB ] Банши / Banshee / Сезон: 4 / Серии 1-2 из 8 [2016 HDTV 1080p] MVO Milеna Скачать
1 | 0
Зарубежные сериалы [ 1.72 GB ] Банши / Banshee / Сезон: 4 / Серии 1-2 из 8 [2016 HDTVRip-AVC] MVO +Original Milеna Скачать
1 | 0

28-11-2019 20:33  

Отключить всю рекламу на сайте

    Дорогой пользователь! Огромная просьба, поблагодарите релизера, оцените раздачу и оставьте свои комментарий, если Вы скачали Банши через торрент бесплатно! Внесите свою лепту в развитие PiratBit!
    Комментировать посты могут только пользователи прошедшие не сложную регистрацию
    Показать сообщения:    

    Банши через торрент
    Скачать бесплатно Банши
    Банши скачать торрент
    Банши смотреть онлайн
    Cкачать фильм Банши бесплатно
    Банши скачать торрент в хорошем качестве
    Банши смотреть онлайн бесплатно в хорошем качестве


    Вы не можете начинать темы
    Вы не можете отвечать на сообщения
    Вы не можете редактировать свои сообщения
    Вы не можете удалять свои сообщения
    Вы не можете голосовать в опросах
    Вы не можете прикреплять файлы к сообщениям
    Вы можете скачивать файлы