Marvel's Avengers Deluxe Edition (супер цена) 159р. Внимание количество ограничено!!!

2 сезон

iTunes

iTunes

1

iTunes

iTunes

iTunes

WEBRip

iTunes

30
pack

Новость дня

ВАЖНО

!!Акция!!

Alien_RageХит недели

RePack

Horizon Zero Dawn

ИГРА 18+

pack

RePack

jed

!!Акция!!

Alien_Rage

RePack

fifa19

RePack

Assassins Creed: Odyssey

RePack

NEED FOR SPEED™ PAYBACK

4 сезон

9 сезон

Бесстыжие 9 сезон

Все сериалы

все сериалы на PB.wtf

RePack

FAR CRY 5
  

Стефани / Stephanie (Акива Голдсман) [2017, Ужасы, фэнтези, драма, детектив, WEB-DL 720p] MVO [@MUZOBOZ@] pb.wtf

Стефани через торрент pb.wtf

Размер: 3.24 GB | Добавлен: 2 года 5 мес. назад | Торрент скачан:289 раз
Скачать  

18-04-2018 19:17 Стефани Скачать торрент  

Стефани / StephanieГод выпуска: 2017
Страна: США
Жанр: Ужасы, фэнтези, драма, детектив
Продолжительность: :01:27:38
Перевод: Любительский (многоголосый) | @MUZOBOZ@
Субтитры: отсутствуют

Режиссер: Акива Голдсман

rating

В ролях:

Анна Торв, Фрэнк Грилло, Кеннет Чои, Хэролд Перрино, Эллен Дубин, Шри Крукс, Дерик Маккейб, Адам Лазарр-Уайт, Свати Капила

Описание:

Девочка с необычными способностями считалась сиротой, пока вдруг не появились мужчина и женщина, утверждающие, что они её родители.

Качество: WEB-DL 720p
Формат: AVI

Видео: H.264, 4 915 Кбит/с, 1280x532
Аудио#1: Русский (AC3, 2 ch, 384 Кбит/с)
скриншот  скриншот  скриншот  

Общее
Уникальный идентификатор : 174493027560874810410381221351085902905 (0x8346227AD2A4C4288F867DF2F2AD0C39)
Полное имя : D:\Stephanie.2018.P.WEB-DL.72Op.mkv
Формат : Matroska
Версия формата : Version 2
Размер файла : 3,24 Гбайт
Продолжительность : 1 ч. 27 м.
Режим общего битрейта : Переменный
Общий поток : 5301 Кбит/сек
Дата кодирования : UTC 2018-04-18 11:36:46
Программа кодирования : mkvmerge v8.3.0 ('Over the Horizon') 64bit
Библиотека кодирования : libebml v1.3.1 + libmatroska v1.4.2

Видео
Идентификатор : 1
Формат : AVC
Формат/Информация : Advanced Video Codec
Профиль формата : High@L4.1
Параметр CABAC формата : Да
Параметр RefFrames формата : 4 кадра
Идентификатор кодека : V_MPEG4/ISO/AVC
Продолжительность : 1 ч. 27 м.
Вид битрейта : Переменный
Битрейт : 4915 Кбит/сек
Максимальный битрейт : 5400 Кбит/сек
Ширина : 1280 пикселей
Высота : 532 пикселя
Соотношение сторон : 2,40:1
Режим частоты кадров : Постоянный
Частота кадров : 23,976 (24000/1001) кадра/сек
Стандарт вещания : Component
Цветовое пространство : YUV
Субдискретизация насыщенности : 4:2:0
Битовая глубина : 8 бит
Тип развёртки : Прогрессивная
Бит/(Пиксели*Кадры) : 0.295
Размер потока : 2,95 Гбайт (91%)
Default : Да
Forced : Нет
Цветовой диапазон : Limited
Основные цвета : BT.709
Характеристики трансфера : BT.709
Коэффициенты матрицы : BT.709

Аудио
Идентификатор : 2
Формат : AC-3
Формат/Информация : Audio Coding 3
Расширение режима : CM (complete main)
Параметр Endianness формата : Big
Идентификатор кодека : A_AC3
Продолжительность : 1 ч. 27 м.
Вид битрейта : Постоянный
Битрейт : 384 Кбит/сек
Каналы : 2 канала
Расположение каналов : Front: L R
Частота : 48,0 КГц
Частота кадров : 31,250 кадров/сек (1536 spf)
Метод сжатия : С потерями
Размер потока : 241 Мбайт (7%)
Default : Да
Forced : Нет

pb.wtf



Скачать Стефани через торрент http://img12.lostpic.net/2018/04/18/36231f74d1f8b7556f125596cc32274b.jpg Скачать фильм Стефани через торрент бесплантно в хорошем качестве Описание: Девочка с необычными способностями считалась сиротой, пока вдруг не появились мужчина и женщина, утверждающие, что они её ... 8.7 10 11
Торрент: Зарегистрирован [2018-04-18 19:17] · скачан: 289 раз
Статус: T временная
Размер: 3.24 GB
Как cкачать? Как скачать Стефани через торрент | qTorrent

% Раздел Тема Автор DL S | L
Фильмы 2018 [DVDrip, WEB-DLRip, HDrip] (DUB, MVO) [ 1.42 GB ] Незаменимый ты / Irreplaceable You [2018 WEBRip-AVC] MVO [HDRezka studio] sokol_ok Скачать
3 | 0
T Фильмы (мультфильмы) cо спонсором показа (Новинки AVI/MKV) [ 1.38 GB ] Стефани / Stephanie [2017 WEB-DLRip] MVO [@MUZOBOZ@] bober100 Скачать
1 | 0
Порно фильмы с русским переводом [ 1.51 GB ] Интимное прикосновение / Intimate Touch [2001 Erotic Fantasy TVRip] delmi123 Скачать
1 | 0
Гонзо [ 1.36 GB ] Best of Stephanie Swift / Лучшее от Стефани Свифт [2009 All Sex Feature Compilation DVDRip] Majestro Скачать
1 | 0

28-11-2019 20:33  

Отключить всю рекламу на сайте

11-01-2020 16:42 Стефани Скачать торрент  

очень хороший фильм.по мне так и оценки рейтинга занижены.с удовольствием глянул.pb.wtf



    Дорогой пользователь! Огромная просьба, поблагодарите релизера, оцените раздачу и оставьте свои комментарий, если Вы скачали Стефани через торрент бесплатно! Внесите свою лепту в развитие PiratBit!
    Комментировать посты могут только пользователи прошедшие не сложную регистрацию
    Показать сообщения:    

    Стефани через торрент
    Скачать бесплатно Стефани
    Стефани скачать торрент
    Стефани смотреть онлайн
    Cкачать фильм Стефани бесплатно
    Стефани скачать торрент в хорошем качестве
    Стефани смотреть онлайн бесплатно в хорошем качестве


    Вы не можете начинать темы
    Вы не можете отвечать на сообщения
    Вы не можете редактировать свои сообщения
    Вы не можете удалять свои сообщения
    Вы не можете голосовать в опросах
    Вы не можете прикреплять файлы к сообщениям
    Вы можете скачивать файлы