Всегда рабочее зеркало без VPN и Proxy просто перед .vidak.icu напиши любое слово или цифру, Пример http://bpy1.vidak.icu

Лицензия

MVO

1 сезон

1

1 сезон

iTunes

1 сезон

13

1 сезон

Deluxe

pack

Рекомендуем

Repack

30

ВАЖНО

RePack

MK11

RePack

jed

RePack

fifa19

RePack

RDR2

RePack

NEED FOR SPEED™ PAYBACK

Кинопоиск HD

6 сезон

 Острые козырьки 6 сезон

Все сериалы

все сериалы на PB.wtf

RePack

FAR CRY 5
  
Magnet ссылка

Грешное тело / Body of Sin (Амария Олсон, Обин Олсон) [2018, Триллер, криминал, приключения, WEB-DL 1080p] DUB [IVI] pb.wtf

Грешное тело через торрент pb.wtf

Раздают: 3 [ 0 KB/s ]
Размер: 3.25 GB | Добавлен: 14 д. назад | Торрент скачан:56 раз
Смотреть онлайн Грешное тело | Скачать    Ребята, помогите собрать деньги на оплату серверов!!!

18-04-2018 19:32 Грешное тело Скачать торрент  

Грешное тело
Body of Sin

Год выпуска: 2018
Страна: США
Жанр: Триллер, криминал, приключения
Продолжительность: 01:24:46
Перевод: Дублированный | IVI
Субтитры: отсутствуют

Режиссер: Амария Олсон, Обин Олсон

rating

В ролях: Марк МакКалло, Элли Патрикиос, Элиша Криис, Дэнни Арройо, Барри Пьяченте

Описание: Две девушки с помощью техник соблазна обкрадывают состоятельных мужчин. Однако, узнав о том, что у одной из их жертв есть бриллианты, стоимостью миллионы долларов, их жизнь подвергается огромному риску.

Качество: WEB-DL 1080p
Формат: MKV

Видео: MPEG-4 AVC, 5120 Кb/s, 1920x858, 24.000 fps
Аудио: 48 kHz, AC3 Dolby Digital, 3/2 (L, C, R, l, r) + LFE ch, ~384 Kbps
скриншот  скриншот  скриншот  скриншот  

General
Unique ID: 241106066034775921909230988992511310381 (0xB56356D81A80AFFDA9D4BE1CD05D7A2D)
Complete name: D:Greshnoe telo.2018.WEB-DL.1080p.ELEKTRI4KA.UNIONGANG.mkv
Format: Matroska
Format version: Version 4
File size: 3.25 GiB
Duration: 1 h 24 min
Overall bit rate: 5 483 kb/s
Movie name: Greshnoe telo.2018.WEB-DL.1080p.ELEKTRI4KA.UNIONGANG.
Encoded date: UTC 2022-08-02 09:39:47
Writing application: mkvmerge v8.3.0 ('Over the Horizon') 32bit
Writing library: libebml v1.3.1 + libmatroska v1.4.2

Video
ID: 1
Format: AVC
Format/Info: Advanced Video Codec
Format profile: [email protected]
Format settings: CABAC / 4 Ref Frames
Format settings, CABAC: Yes
Format settings, Reference frames: 4 frames
Codec ID: V_MPEG4/ISO/AVC
Duration: 1 h 24 min
Bit rate: 5 120 kb/s
Width: 1 920 pixels
Height: 858 pixels
Display aspect ratio: 2.25:1
Frame rate mode: Constant
Frame rate: 24.000 FPS
Color space: YUV
Chroma subsampling: 4:2:0
Bit depth: 8 bits
Scan type: Progressive
Bits/(Pixel*Frame): 0.130
Stream size: 3.02 GiB (93%)
Writing library: x264 core 152 r2854 e9a5903
Encoding settings: cabac=1 / ref=3 / deblock=1:0:0 / analyse=0x3:0x113 / me=hex / subme=7 / psy=1 / psy_rd=1.00:0.00 / mixed_ref=1 / me_range=16 / chroma_me=1 / trellis=1 / 8x8dct=1 / cqm=0 / deadzone=21, 11 / fast_pskip=1 / chroma_qp_offset=-2 / threads=27 / lookahead_threads=4 / sliced_threads=0 / nr=0 / decimate=1 / interlaced=0 / bluray_compat=0 / constrained_intra=0 / bframes=6 / b_pyramid=2 / b_adapt=1 / b_bias=0 / direct=1 / weightb=1 / open_gop=0 / weightp=2 / keyint=48 / keyint_min=25 / scenecut=0 / intra_refresh=0 / rc_lookahead=40 / rc=2pass / mbtree=1 / bitrate=5120 / ratetol=1.0 / qcomp=0.60 / qpmin=0 / qpmax=69 / qpstep=4 / cplxblur=20.0 / qblur=0.5 / vbv_maxrate=7680 / vbv_bufsize=20480 / nal_hrd=none / filler=0 / ip_ratio=1.40 / aq=1:1.00
Default: Yes
Forced: No

Audio
ID: 2
Format: AC-3
Format/Info: Audio Coding 3
Commercial name: Dolby Digital
Codec ID: A_AC3
Duration: 1 h 24 min
Bit rate mode: Constant
Bit rate: 384 kb/s
Channel(s): 6 channels
Channel layout: L R C LFE Ls Rs
Sampling rate: 48.0 kHz
Frame rate: 31.250 FPS (1536 SPF)
Compression mode: Lossy
Stream size: 233 MiB (7%)
Title: DUB (IVI)
Language: Russian
Service kind: Complete Main
Default: Yes
Forced: Yes
pb.wtf



Скачать Грешное тело через торрент https://i120.fastpic.org/big/2022/0802/1a/18ceeb66d5a1b6cd69b51f8e04b8fd1a.jpg Скачать, смотреть онлайн Грешное тело бесплантно в хорошем качестве Описание: Две девушки с помощью техник соблазна обкрадывают состоятельных мужчин. Однако, узнав о том, что у одной из их жертв есть ... 9.3 10 11
Торрент: Зарегистрирован [2022-08-02 17:44] · скачан: 56 раз
Статус: √ проверено
Размер: 3.25 GB
Как cкачать? Как скачать Грешное тело через торрент | UTorrent

% Раздел Тема Автор DL S | L
Фильмы 2018 [DVDrip, WEB-DLRip, HDrip] (DUB, MVO) [ 744 MB ] Грешное тело / Body of Sin [2018 WEB-DLRip] DUB [IVI] bober100 Скачать
2 | 0
Фильмы 2018 [DVDrip, WEB-DLRip, HDrip] (DUB, MVO) [ 1.37 GB ] Грешное тело / Body of Sin [2018 WEB-DLRip] DUB [IVI] bober100 Скачать
2 | 0

28-11-2019 20:33  

Отключить вcю реклaмy на сайте

    Дорогой пользователь! Огромная просьба, поблагодарите релизера, оцените раздачу и оставьте свои комментарий, если Вы скачали Грешное тело через торрент бесплатно!
    Комментировать посты могут только пользователи прошедшие не сложную регистрацию
    Показать сообщения:    

    Грешное тело через торрент
    Скачать бесплатно Грешное тело
    Грешное тело скачать торрент
    Грешное тело смотреть онлайн
    Cкачать фильм Грешное тело бесплатно
    Грешное тело скачать торрент в хорошем качестве
    Грешное тело смотреть онлайн бесплатно в хорошем качестве


    Вы не можете начинать темы
    Вы не можете отвечать на сообщения
    Вы не можете редактировать свои сообщения
    Вы не можете удалять свои сообщения
    Вы не можете голосовать в опросах
    Вы не можете прикреплять файлы к сообщениям
    Вы можете скачивать файлы