Ссылка на приватное зеркало всего за 1$. Внимание количество ограничено!!!

OK

1+1

iTunes

мы

OK

1

WEB-DLRip

Джокер

Пифагор

Ведьмак / The Witcher сериал

iTunes

ПШазам

ОК

Оно 2

iTunes

30
pack

Вам бонус

ВАЖНО

!!Акция!!

Alien_RageХит недели

RePack

Resident Evil 21

ИГРА 18+

pack

RePack

jed

RePack

fifa19

RePack

Assassins Creed: Odyssey

RePack

NEED FOR SPEED™ PAYBACK

4 сезон

9 сезон

Бесстыжие 9 сезон

Все сериалы

все сериалы на PB.wtf

RePack

FAR CRY 5
  

Тело греха / Body of Sin (Амария Олсон, Обин Олсон) [2018, Триллер, криминал, приключения, WEB-DL 720p] MVO ["Синема УС"] pb.wtf

Тело греха через торрент pb.wtf

Размер: 3.02 GB | Добавлен: 1 год 9 мес. назад | Торрент скачан:68 раз
Скачать  

18-04-2018 19:32 Тело греха Скачать торрент  

Тело греха / Body of SinГод выпуска: 2018
Страна: США
Жанр: Триллер, криминал, приключения
Продолжительность: 01:26:50
Перевод: Любительский (многоголосый) | "Синема УС"
Субтитры: отсутствуют

Режиссер: Амария Олсон, Обин Олсон

rating

В ролях:

Марк МакКалло, Элли Патрикиос, Элиша Криис, Дэнни Арройо, Барри Пьяченте

Описание:

Две девушки с помощью техник соблазна обкрадывают состоятельных мужчин. Однако, узнав о том, что у одной из их жертв есть бриллианты, стоимостью миллионы долларов, их жизнь подвергается огромному риску.

Качество: WEB-DL 720p
Формат: MKV

Видео: H.264, 4 595 Кбит/с, 1280x568
Аудио#1: Русский (AC3, 2 ch, 384 Кбит/с)
скриншот  скриншот  скриншот  

Общее
Уникальный идентификатор : 222924352413658199560221788424512907914 (0xA7B5AB270DB4CD8EB192F84DF582AA8A)
Полное имя : D:\Body of Sin 2018.P.WEB-DL.72Op_KOSHARA.mkv
Формат : Matroska
Версия формата : Version 2
Размер файла : 3,02 Гбайт
Продолжительность : 1 ч. 26 м.
Режим общего битрейта : Переменный
Общий поток : 4981 Кбит/сек
Дата кодирования : UTC 2018-04-18 12:44:01
Программа кодирования : mkvmerge v8.3.0 ('Over the Horizon') 64bit
Библиотека кодирования : libebml v1.3.1 + libmatroska v1.4.2

Видео
Идентификатор : 1
Формат : AVC
Формат/Информация : Advanced Video Codec
Профиль формата : High@L4.1
Параметр CABAC формата : Да
Параметр RefFrames формата : 4 кадра
Идентификатор кодека : V_MPEG4/ISO/AVC
Продолжительность : 1 ч. 26 м.
Вид битрейта : Переменный
Битрейт : 4595 Кбит/сек
Максимальный битрейт : 5000 Кбит/сек
Ширина : 1280 пикселей
Высота : 568 пикселей
Соотношение сторон : 2,25:1
Режим частоты кадров : Постоянный
Частота кадров : 23,976 (24000/1001) кадра/сек
Стандарт вещания : Component
Цветовое пространство : YUV
Субдискретизация насыщенности : 4:2:0
Битовая глубина : 8 бит
Тип развёртки : Прогрессивная
Бит/(Пиксели*Кадры) : 0.258
Размер потока : 2,73 Гбайт (90%)
Default : Да
Forced : Нет
Цветовой диапазон : Limited
Основные цвета : BT.709
Характеристики трансфера : BT.709
Коэффициенты матрицы : BT.709

Аудио
Идентификатор : 2
Формат : AC-3
Формат/Информация : Audio Coding 3
Расширение режима : CM (complete main)
Параметр Endianness формата : Big
Идентификатор кодека : A_AC3
Продолжительность : 1 ч. 26 м.
Вид битрейта : Постоянный
Битрейт : 384 Кбит/сек
Каналы : 2 канала
Расположение каналов : Front: L R
Частота : 48,0 КГц
Частота кадров : 31,250 кадров/сек (1536 spf)
Метод сжатия : С потерями
Размер потока : 238 Мбайт (8%)
Default : Да
Forced : Нет

pb.wtf



Скачать Тело греха через торрент http://img12.lostpic.net/2018/04/18/8e870e3fe590d6f7655a786489ebe596.jpg Скачать фильм Тело греха через торрент бесплантно в хорошем качестве Описание: Две девушки с помощью техник соблазна обкрадывают состоятельных мужчин. Однако, узнав о том, что у одной из их жертв есть ... 7 10 6
Торрент: Зарегистрирован [2018-04-18 19:32] · скачан: 68 раз
Статус: T временная
Размер: 3.02 GB
Как cкачать? Как скачать Тело греха через торрент | qTorrent

% Раздел Тема Автор DL S | L
T Фильмы (мультфильмы) cо спонсором показа (Новинки AVI/MKV) [ 1.37 GB ] Тело греха / Body of Sin [2018 WEB-DLRip] MVO ["Синема УС"] bober100 Скачать
1 | 0

28-11-2019 20:33  

Отключить всю рекламу на сайте

    Дорогой пользователь! Огромная просьба, поблагодарите релизера, оцените раздачу и оставьте свои комментарий, если Вы скачали Тело греха через торрент бесплатно! Внесите свою лепту в развитие PiratBit!
    Комментировать посты могут только пользователи прошедшие не сложную регистрацию
    Показать сообщения:    

    Тело греха через торрент
    Скачать бесплатно Тело греха
    Тело греха скачать торрент
    Тело греха смотреть онлайн
    Cкачать фильм Тело греха бесплатно
    Тело греха скачать торрент в хорошем качестве
    Тело греха смотреть онлайн бесплатно в хорошем качестве


    Вы не можете начинать темы
    Вы не можете отвечать на сообщения
    Вы не можете редактировать свои сообщения
    Вы не можете удалять свои сообщения
    Вы не можете голосовать в опросах
    Вы не можете прикреплять файлы к сообщениям
    Вы можете скачивать файлы