Ссылка на приватное зеркало всего за 1$. Внимание количество ограничено!!!

iTunes

1+1

iTunes

мы

WEB-DL

1

iTunes

Чернобыль

iTunes

Ральф против интернета

Лицензия

ПШазам

Лицензия

Оно 2

Лицензия

30
pack

Вам бонус

ВАЖНО

!!Акция!!

Alien_RageХит недели

RePack

Resident Evil 21

ИГРА 18+

pack

RePack

jed

!!Акция!!

Alien_Rage

RePack

fifa19

RePack

Assassins Creed: Odyssey

RePack

NEED FOR SPEED™ PAYBACK

3 сезон

9 сезон

Бесстыжие 9 сезон

Все сериалы

все сериалы на PB.wtf

RePack

FAR CRY 5
Ребята, катастрофически не хватает 1900р. для оплаты серверов за Октябрь (всвязи с блокировками трафик упал в 3 раза), 1-2р., выручайте.
  

Ограбление в ураган / The Hurricane Heist (Роб Коэн) [2018, боевик, триллер, WEB-DLRip-AVC] DUB [iTunes] - ExKinoRay pb.wtf

Ограбление в ураган через торрент pb.wtf

Размер: 1.92 GB | Добавлен: 1 год 7 мес. назад | Торрент скачан:1610 раз
Скачать  

19-04-2018 03:29 Ограбление в ураган Скачать торрент  

Информация о фильме
Название: Ограбление в ураган
Оригинальное название: The Hurricane Heist
Год выпуска: 2018
Жанр: Боевик, триллер
Страна: США
Студия: Dream Team Films Pvt. Ltd.
Продолжительность: 01:42:31
Перевод: Дублированный | iTunes
Субтитры: Английские
Режиссер: Роб Коэн
В ролях: Тоби Кеббелл, Мэгги Грэйс, Райан Квантен, Ралф Айнесон, Мелисса Болона, Бен Кросс, Джэми Эндрю Катлер, Кристиан Райан Контрерас, Эд Бирч

Описание:
На побережье Америки стремительно надвигается ураган. Тем временем банда воров планирует идеальное ограбление: украсть 600 миллионов долларов из казначейства США, воспользовавшись стихийным бедствием как прикрытием. Но когда разбушевавшийся ураган усиливается до смертельно опасной Категории 5, тщательно продуманный план ограбления века трещит по швам...

rating

Файл
Формат: MKV
Качество: WEB-DLRip-AVC
Видео: MPEG-4 AVC, 1024x440 (2.35:1), 23.976 fps, 1920 Kbps, 0.178 bit/pixel
Аудио: 48 kHz, AC3, 5.1 ch, ~384 kbps avg - Rus
Аудио: 48 kHz, AC3, 5.1 ch, ~384 kbps avg - Eng
General
Unique ID : 227332346768074663183162335869421195750 (0xAB069E0DB83D4D158755FFA83A0391E6)
Complete name : D:\The.Hurricane.Heist.2018.WEB-DLRip.AVC.ExKinoRay.mkv
Format : Matroska
Format version : Version 2
File size : 1.92 GiB
Duration : 1 h 42 min
Overall bit rate : 2 688 kb/s
Movie name : The Hurricane Heist 2018 from ExKinoRay
Encoded date : UTC 2018-04-19 01:44:34
Writing application : mkvmerge v5.6.0 ('Kenya Kane') built on May 27 2012 16:44:04
Writing library : libebml v1.2.3 + libmatroska v1.3.0

Video
ID : 1
Format : AVC
Format/Info : Advanced Video Codec
Format profile : High@L4.1
Format settings, CABAC : Yes
Format settings, ReFrames : 10 frames
Codec ID : V_MPEG4/ISO/AVC
Duration : 1 h 42 min
Bit rate : 1 920 kb/s
Width : 1 024 pixels
Height : 440 pixels
Display aspect ratio : 2.35:1
Frame rate mode : Constant
Frame rate : 23.976 (23976/1000) FPS
Color space : YUV
Chroma subsampling : 4:2:0
Bit depth : 8 bits
Scan type : Progressive
Bits/(Pixel*Frame) : 0.178
Stream size : 1.34 GiB (69%)
Title : Enigma
Writing library : x264 core 152 r2851 ba24899
Encoding settings : cabac=1 / ref=10 / deblock=1:-2:-2 / analyse=0x3:0x113 / me=umh / subme=10 / psy=1 / psy_rd=1.05:0.10 / mixed_ref=1 / me_range=32 / chroma_me=1 / trellis=2 / 8x8dct=1 / cqm=0 / deadzone=21,11 / fast_pskip=0 / chroma_qp_offset=-3 / threads=12 / lookahead_threads=3 / sliced_threads=0 / nr=0 / decimate=0 / interlaced=0 / bluray_compat=0 / constrained_intra=0 / bframes=12 / b_pyramid=2 / b_adapt=2 / b_bias=0 / direct=3 / weightb=1 / open_gop=0 / weightp=2 / keyint=240 / keyint_min=23 / scenecut=40 / intra_refresh=0 / rc_lookahead=40 / rc=2pass / mbtree=0 / bitrate=1920 / ratetol=1.0 / qcomp=0.60 / qpmin=0 / qpmax=51 / qpstep=4 / cplxblur=20.0 / qblur=0.5 / vbv_maxrate=50000 / vbv_bufsize=62500 / nal_hrd=none / filler=0 / ip_ratio=1.40 / pb_ratio=1.30 / aq=1:1.00
Language : English
Default : Yes
Forced : No
Color range : Limited
Color primaries : BT.709
Transfer characteristics : BT.709
Matrix coefficients : BT.709

Audio #1
ID : 2
Format : AC-3
Format/Info : Audio Coding 3
Mode extension : CM (complete main)
Format settings, Endianness : Big
Codec ID : A_AC3
Duration : 1 h 42 min
Bit rate mode : Constant
Bit rate : 384 kb/s
Channel(s) : 6 channels
Channel positions : Front: L C R, Side: L R, LFE
Sampling rate : 48.0 kHz
Frame rate : 31.250 FPS (1536 spf)
Compression mode : Lossy
Stream size : 282 MiB (14%)
Title : iTunes
Language : Russian
Default : Yes
Forced : Yes

Audio #2
ID : 3
Format : AC-3
Format/Info : Audio Coding 3
Mode extension : CM (complete main)
Format settings, Endianness : Big
Codec ID : A_AC3
Duration : 1 h 42 min
Bit rate mode : Constant
Bit rate : 384 kb/s
Channel(s) : 6 channels
Channel positions : Front: L C R, Side: L R, LFE
Sampling rate : 48.0 kHz
Frame rate : 31.250 FPS (1536 spf)
Compression mode : Lossy
Stream size : 282 MiB (14%)
Language : English
Default : No
Forced : No

Text
ID : 4
Format : UTF-8
Codec ID : S_TEXT/UTF8
Codec ID/Info : UTF-8 Plain Text
Title : Full
Language : English
Default : No
Forced : No

Menu
00:00:00.000 : en:1
00:04:08.000 : en:2
00:15:12.000 : en:3
00:25:20.000 : en:4
00:33:43.000 : en:5
00:45:20.000 : en:6
00:56:18.000 : en:7
01:06:24.000 : en:8
01:17:18.000 : en:9
01:24:40.000 : en:10
01:33:31.000 : en:11
Релиз от:

Автор релиза: pb.wtf



Скачать Ограбление в ураган через торрент http://i104.fastpic.ru/big/2018/0418/01/69e67d3fb1a6c06a87e9195878d3ad01.jpg Скачать фильм Ограбление в ураган через торрент бесплантно в хорошем качестве Описание: На побережье Америки стремительно надвигается ураган. Тем временем банда воров планирует идеальное ограбление: украсть 600 ... 9.2 10 28
Info! Золотая раздача, скачанное не засчитывается.
Торрент: Зарегистрирован [2018-04-19 03:29] · скачан: 1 610 раз
Статус: √ проверено
Размер: 1.92 GB
Как cкачать? Как скачать Ограбление в ураган через торрент | qTorrent

% Раздел Тема Автор DL S | L
Фильмы 2018 [DVDrip, WEB-DLRip, HDrip] (DUB, MVO) [ 2.06 GB ] Ограбление в ураган / The Hurricane Heist [2018 BDRip-AVC] - ExKinoRay Enigma2010 Скачать
2 | 0

28-11-2019 20:33  

Отключить всю рекламу на сайте

19-04-2018 04:09 Ограбление в ураган Скачать торрент  

Быстро как!pb.wtf



19-04-2018 05:00 Ограбление в ураган Скачать торрент  

zra писал(а):

Быстро как!

The Fast and the Furious pb.wtf



19-04-2018 19:41 Ограбление в ураган Скачать торрент  

Хороший зрелищный, боевичок- катастрофа получился.pb.wtf



22-04-2018 18:54 Ограбление в ураган Скачать торрент  

Давно не смотрел такое редкостное .pb.wtf



20-05-2018 02:10 Ограбление в ураган Скачать торрент  

Фильмец не зашел, рейтинг справедливый...pb.wtf



28-05-2018 18:38 Ограбление в ураган Скачать торрент  

Напрасно потраченное время...pb.wtf



    Дорогой пользователь! Огромная просьба, поблагодарите релизера, оцените раздачу и оставьте свои комментарий, если Вы скачали Ограбление в ураган через торрент бесплатно! Внесите свою лепту в развитие PiratBit!
    Комментировать посты могут только пользователи прошедшие не сложную регистрацию
    Показать сообщения:    

    Ограбление в ураган через торрент
    Скачать бесплатно Ограбление в ураган
    Ограбление в ураган скачать торрент
    Ограбление в ураган смотреть онлайн
    Cкачать фильм Ограбление в ураган бесплатно
    Ограбление в ураган скачать торрент в хорошем качестве
    Ограбление в ураган смотреть онлайн бесплатно в хорошем качестве


    Вы не можете начинать темы
    Вы не можете отвечать на сообщения
    Вы не можете редактировать свои сообщения
    Вы не можете удалять свои сообщения
    Вы не можете голосовать в опросах
    Вы не можете прикреплять файлы к сообщениям
    Вы можете скачивать файлы