Ссылка на приватное зеркало нашего сайта всего за 1$. Внимание количество ограничено!!!

2 сезон

iTunes

1 сезон

1

2 сезон

2 сезон

iTunes

1 сезон

RePack

30

Новинка

ВАЖНО

ИГРА 18+

pack

RePack

MK11
pack

Забери бонус

RePack

jed

!!Акция!!

Alien_Rage

RePack

fifa19

RePack

Assassins Creed: Odyssey

RePack

NEED FOR SPEED™ PAYBACK

4 сезон

9 сезон

Бесстыжие 9 сезон

Все сериалы

все сериалы на PB.wtf

RePack

FAR CRY 5
  

Призрачная башня / The Looming Tower / Сезон: 1 / Серии: 1-10 из 10 (Крейг Зиск, Майкл Словис, Алекс Гибни) [2018, драма, WEBRip] DVO [SunshineStudio] pb.wtf

Призрачная башня через торрент pb.wtf

Размер: 5.84 GB | Добавлен: 2 года 7 мес. назад | Торрент скачан:7 раз
Скачать  

19-04-2018 06:32 Призрачная башня Скачать торрент  

Призрачная башня / The Looming TowerИнформация о фильме:

Название: Призрачная башня
Оригинальное название: The Looming Tower
Год выпуска: 2018 (1 сезон)
Страна: США / Legendary Television
Жанр: драма
Продолжительность: ~ 00:45:00 серия
Перевод: Любительский двухголосый |
Субтитры: отсутствуют

Режиссер: Крейг Зиск, Майкл Словис, Алекс Гибни

rating

В ролях:

Джефф Дэниелс, Тахар Рахим, Ренн Шмидт, Билл Кэмп, Луис Канселми, Вирджиния Кулл, Элла Рэй Пек, Салливан Джонс, Майкл Стулбарг, Питер Сарсгаард, Самер Бишарат, Тауфик Бархом, Алек Болдуин, Дженнифер Дандас и др.

Описание:

В центре событий — агенты ФБР и ЦРУ, которые объединяют усилия в борьбе с растущей террористической угрозой со стороны Усамы бен Ладена и «Аль-Каиды». Однако вскоре ведомства начинают соперничать друг с другом, что в итоге приводит к трагедии 11 сентября и войне в Ираке.

Информация о файле:

Качество: WEBRip
Формат: AVI

Видео: ~ 1500 kbps, 720x400 (16:9), 23.976 fps
Аудио: AC3, 2 ch, 192 Кбит/си- Rus
скриншот  скриншот  скриншот  

Общее
Полное имя : D:\The.Looming.Tower.S01.400p.SunshineStudio\The.Looming.Tower.S01E01.400p.SunshineStudio.avi
Формат : AVI
Формат/Информация : Audio Video Interleave
Размер файла : 622 Мбайт
Продолжительность : 51 м. 8 с.
Общий поток : 1701 Кбит/сек
Программа кодирования : VirtualDubMod 1.5.10.3 | www.virtualdub-fr.org || (build 2550/release)
Библиотека кодирования : VirtualDubMod build 2550/release

Видео
Идентификатор : 0
Формат : MPEG-4 Visual
Профиль формата : Advanced Simple@L5
Параметр BVOP формата : 1
Параметр QPel формата : Нет
Параметр GMC формата : Без точки перехода
Параметр матрицы формата : Default (H.263)
Идентификатор кодека : XVID
Идентификатор кодека/Подсказка : XviD
Продолжительность : 51 м. 8 с.
Битрейт : 1500 Кбит/сек
Ширина : 720 пикселей
Высота : 400 пикселей
Соотношение сторон : 16:9
Частота кадров : 23,976 (23976/1000) кадра/сек
Цветовое пространство : YUV
Субдискретизация насыщенности : 4:2:0
Битовая глубина : 8 бит
Тип развёртки : Прогрессивная
Метод сжатия : С потерями
Бит/(Пиксели*Кадры) : 0.217
Размер потока : 549 Мбайт (88%)
Библиотека кодирования : XviD 1.2.1 (UTC 2008-12-04)

Аудио
Идентификатор : 1
Формат : AC-3
Формат/Информация : Audio Coding 3
Расширение режима : CM (complete main)
Параметр Endianness формата : Big
Идентификатор кодека : 2000
Продолжительность : 51 м. 8 с.
Вид битрейта : Постоянный
Битрейт : 192 Кбит/сек
Каналы : 2 канала
Расположение каналов : Front: L R
Частота : 48,0 КГц
Частота кадров : 31,250 кадров/сек (1536 spf)
Метод сжатия : С потерями
Размер потока : 70,2 Мбайт (11%)
Выравнивание : Разделение по промежуткам
Продолжительность промежутка : 42 мс. (1,00 видеокадр)
Время предзагрузки промежутка : 500 мс.

pb.wtf



Скачать Призрачная башня через торрент http://img12.lostpic.net/2018/04/19/bf541ad4f984807808340bcf29098371.jpg Скачать фильм Призрачная башня через торрент бесплантно в хорошем качестве Описание: В центре событий — агенты ФБР и ЦРУ, которые объединяют усилия в борьбе с растущей террористической угрозой со стороны Усамы бен ... 10 10 3
Торрент: Зарегистрирован [2018-04-19 06:32] · скачан: 7 раз
Статус: √ проверено
Размер: 5.84 GB
Как cкачать? Как скачать Призрачная башня через торрент | qTorrent

% Раздел Тема Автор DL S | L
Зарубежные сериалы [ 24.62 GB ] Призрачная башня / The Looming Tower / Сезон: 1 / Серии: 1-10 из 10 [2018 WEBRip 1080p] MVO [TVShows] bober100 Скачать
1 | 0
Зарубежные сериалы [ 5.86 GB ] Призрачная башня / The Looming Tower / Сезон: 1 / Серии: 1-10 из 10 [2018 WEB-DLRip] MVO [LostFilm] bober100 Скачать
1 | 0
Зарубежные сериалы [ 8.13 GB ] Призрачная башня / The Looming Tower / Сезон: 1 / Серии: 1-10 из 10 [2018 WEBRip 720p] DVO [SunshineStudio] bober100 Скачать
1 | 0
Зарубежные сериалы [ 24.86 GB ] Призрачная башня / The Looming Tower / Сезон: 1 / Серии: 1-10 из 10 [2018 WEBRip 1080p] MVO [Jaskier] bober100 Скачать
1 | 0
Зарубежные сериалы [ 16.92 GB ] Призрачная башня / The Looming Tower / Сезон 1 / Серии 1 - 10 из 10 [2018 WEBRip 1080p] MVO senya120879 Скачать
1 | 0
Зарубежные сериалы [ 11 GB ] Призрачная башня / The Looming Tower / Сезон: 1 / Серии: 1-10 из 10 [2018 WEBRip 720p] MVO [Jaskier] bober100 Скачать
1 | 0
Зарубежные сериалы [ 6 GB ] Призрачная башня / The Looming Tower / Сезон: 1 / Серии: 1-10 из 10 [2018 WEBRip] MVO [Jaskier] bober100 Скачать
1 | 0

28-11-2019 20:33  

Отключить всю рекламу на сайте

    Дорогой пользователь! Огромная просьба, поблагодарите релизера, оцените раздачу и оставьте свои комментарий, если Вы скачали Призрачная башня через торрент бесплатно! Внесите свою лепту в развитие PiratBit!
    Комментировать посты могут только пользователи прошедшие не сложную регистрацию
    Показать сообщения:    

    Призрачная башня через торрент
    Скачать бесплатно Призрачная башня
    Призрачная башня скачать торрент
    Призрачная башня смотреть онлайн
    Cкачать фильм Призрачная башня бесплатно
    Призрачная башня скачать торрент в хорошем качестве
    Призрачная башня смотреть онлайн бесплатно в хорошем качестве


    Вы не можете начинать темы
    Вы не можете отвечать на сообщения
    Вы не можете редактировать свои сообщения
    Вы не можете удалять свои сообщения
    Вы не можете голосовать в опросах
    Вы не можете прикреплять файлы к сообщениям
    Вы можете скачивать файлы