Всегда рабочее зеркало просто перед .vidak.icu напиши любое слово или цифру, Пример http://7bu.vidak.icu

>

7.4

iTunes

7.4

2 сезон

9.4

1 сезон

1

7.4

2 сезон

7.2

iTunes

6.0

MVO

13

6.1

iTunes

8.3

Пиратка

30

ULTIMATE

pack

9.9

Лицензия

ВАЖНО

ИГРА 18+

pack

7.3

RePack

MK11

7.7

RePack

jed

7.8

RePack

fifa19

8.5

RePack

RDR2

RePack

NEED FOR SPEED™ PAYBACK

1 сезон

9 сезон

Бесстыжие 9 сезон

Все сериалы

все сериалы на PB.wtf

RePack

FAR CRY 5

Anonymous, доброе утро, мы катастрофически не успеваем собрать деньги на оплату серверов, помогите нам пожалуйста 5,10,15р., для нас важна любая помощь . В качестве благодарности мы отключим Вам всю рекламу на сайте (укажите свой ник в строку Ваше имя)!

×
  
Magnet ссылка

У богатых свои привычки / Roba da ricchi (Серджио Корбуччи) [1987 г., Комедия, DVDRip-AVC, Авторский (одноголосый)] от ExKinoRay pb.wtf

У богатых свои привычки через торрент pb.wtf

Размер: 2.35 GB | Добавлен: 3 года 9 мес. назад | Торрент скачан:15 раз
Смотреть онлайн У богатых свои привычки | Скачать    Ребята, помогите собрать деньги на оплату серверов!!!

19-04-2018 15:25 У богатых свои привычки Скачать торрент  

У богатых свои привычки / Roba da ricchi
Год выпуска: 1987
Страна: Италия
Жанр: Комедия
Продолжительность: 01:45:40
Перевод: Авторский (одноголосый) - (Сергей Козлов)

Режиссер: Серджио Корбуччи

Премьера в мире: 13 ноября 1987

rating

В ролях: Лаура Антонелли, Лино Банфи, Серена Гранди, Паоло Вилладжо, Ренато Поццетто, Франческа Дэллера, Маурицио Микели, Милена Вукотич, Витторио Каприоли, Энцо Гаринеи

Описание: Под лазурным небом Ниццы развертываются комичные приключения страхового агента, глупого (или умного) настолько, что он страхует собак от укуса человека, и бизнесмена, помешанного на женщинах, но обожающего свою жену и многочисленных детей. Входит в сюжет и линия принцессы, которой в полнолуние регулярно снится, что ее насилует во дворце офицер, в жизни совершенно невинный служитель церкви, что доставляет последнему массу неприятностей — чтобы излечить ее от болезненных кошмаров, его заставляют проделать все это в реальности...

Качество: DVDRip-AVC
Формат: MKV
Видео кодек: MPEG4
Аудио кодек: AC3
Видео: MPEG-4 AVC, 2800 Кбит/с, 720x572@1024x572, 25 кадров/сек
Аудио#1: Русский (AC3, 2 ch, 192 Кбит/с, 48 КГц)
Аудио#2: Итальянский (AC3, 1 ch, 192 Кбит/с, 48 КГц)
Релиз от:




raw [info]: 720x572p 64:45 @ 25/1 fps (cfr)
x264 [info]: using SAR=64/45
x264 [info]: using cpu capabilities: MMX2 SSE2Fast LZCNT
x264 [info]: profile High, level 4.1
x264 [info]: frame I:965 Avg QP:17.22 size: 59892
x264 [info]: frame P:34025 Avg QP:19.81 size: 28370
x264 [info]: frame B:123515 Avg QP:21.91 size: 9683
x264 [info]: consecutive B-frames: 1.6% 1.8% 9.8% 20.9% 10.0% 46.5% 9.1% 0.1% 0.1% 0.1% 0.0% 0.0% 0.0% 0.0% 0.0% 0.0% 0.0%
-----
Общее
Уникальный идентификатор : 220248580160173269547102563378100943966 (0xA5B2556519CABE498BC6E872BC77BC5E)
Полное имя : D:\ExKinoRay\Roba.da.ricchi.1987.DVDRip-AVC.ExKinoRay.mkv
Формат : Matroska
Версия формата : Version 2
Размер файла : 2,35 Гбайт
Продолжительность : 1 ч. 45 м.
Общий поток : 3186 Кбит/сек
Дата кодирования : UTC 2018-04-19 13:01:03
Программа кодирования : mkvmerge v7.8.0 ('River Man') 32bit built on Apr 3 2015 12:11:22
Библиотека кодирования : libebml v1.3.1 + libmatroska v1.4.2

Видео
Идентификатор : 1
Формат : AVC
Формат/Информация : Advanced Video Codec
Профиль формата : High@L4.1
Параметр CABAC формата : Да
Параметр ReFrames формата : 14 кадров
Идентификатор кодека : V_MPEG4/ISO/AVC
Продолжительность : 1 ч. 45 м.
Битрейт : 2800 Кбит/сек
Ширина : 720 пикселей
Высота : 572 пикселя
Соотношение сторон : 16:9
Режим частоты кадров : Постоянный
Частота кадров : 25,000 кадров/сек
Цветовое пространство : YUV
Субдискретизация насыщенности : 4:2:0
Битовая глубина : 8 бит
Тип развёртки : Прогрессивная
Бит/(Пиксели*Кадры) : 0.272
Размер потока : 2,02 Гбайт (86%)
Библиотека кодирования : x264 core 148 r2638 7599210
Настройки программы : cabac=1 / ref=14 / deblock=1:-2:-2 / analyse=0x3:0x133 / me=umh / subme=10 / psy=1 / psy_rd=1.05:0.15 / mixed_ref=1 / me_range=32 / chroma_me=1 / trellis=2 / 8x8dct=1 / cqm=0 / deadzone=21,11 / fast_pskip=0 / chroma_qp_offset=-3 / threads=4 / lookahead_threads=1 / sliced_threads=0 / nr=0 / decimate=0 / interlaced=0 / bluray_compat=0 / constrained_intra=0 / bframes=16 / b_pyramid=2 / b_adapt=2 / b_bias=0 / direct=3 / weightb=1 / open_gop=0 / weightp=2 / keyint=250 / keyint_min=25 / scenecut=40 / intra_refresh=0 / rc=2pass / mbtree=0 / bitrate=2800 / ratetol=1.0 / qcomp=0.60 / qpmin=0 / qpmax=69 / qpstep=4 / cplxblur=20.0 / qblur=0.5 / ip_ratio=1.40 / pb_ratio=1.30 / aq=1:1.00
Язык : English
Default : Да
Forced : Нет
Цветовой диапазон : Limited
Основные цвета : BT.601 NTSC
Характеристики трансфера : BT.601
Коэффициенты матрицы : BT.601

Аудио #1
Идентификатор : 2
Формат : AC-3
Формат/Информация : Audio Coding 3
Расширение режима : CM (complete main)
Параметр Endianness формата : Big
Идентификатор кодека : A_AC3
Продолжительность : 1 ч. 45 м.
Вид битрейта : Постоянный
Битрейт : 192 Кбит/сек
Каналы : 2 канала
Расположение каналов : Front: L R
Частота : 48,0 КГц
Частота кадров : 31,250 кадров/сек (1536 spf)
Метод сжатия : С потерями
Размер потока : 145 Мбайт (6%)
Заголовок : Сергей Козлов
Язык : Russian
Default : Да
Forced : Нет

Аудио #2
Идентификатор : 3
Формат : AC-3
Формат/Информация : Audio Coding 3
Расширение режима : CM (complete main)
Параметр Endianness формата : Big
Идентификатор кодека : A_AC3
Продолжительность : 1 ч. 45 м.
Вид битрейта : Постоянный
Битрейт : 192 Кбит/сек
Каналы : 1 канал
Расположение каналов : Front: C
Частота : 48,0 КГц
Частота кадров : 31,250 кадров/сек (1536 spf)
Метод сжатия : С потерями
Размер потока : 145 Мбайт (6%)
Язык : Italian
Default : Нет
Forced : Нет

pb.wtf



Скачать У богатых свои привычки через торрент http://b.radikal.ru/b24/1804/48/0993586ebda6.jpg Скачать, смотреть онлайн У богатых свои привычки бесплантно в хорошем качестве Описание: Под лазурным небом Ниццы развертываются комичные приключения страхового агента, глупого (или умного) настолько, что он страхует ... 5 10 1
Info! Золотая раздача, скачанное не засчитывается.
Торрент: Зарегистрирован [2018-04-19 15:25] · скачан: 15 раз
Статус: √ проверено
Размер: 2.35 GB
Как cкачать? Как скачать У богатых свои привычки через торрент | UTorrent

28-11-2019 20:33  

Отключить всю рекламу на сайте

19-04-2018 17:00 У богатых свои привычки Скачать торрент  

Топик был перенесен из форума Оформление раздач (Кино, Видео и ТВ) в форум Фильмы с авторской озвучкой


bober100pb.wtf



    Дорогой пользователь! Огромная просьба, поблагодарите релизера, оцените раздачу и оставьте свои комментарий, если Вы скачали У богатых свои привычки через торрент бесплатно!
    Комментировать посты могут только пользователи прошедшие не сложную регистрацию
    Показать сообщения:    

    У богатых свои привычки через торрент
    Скачать бесплатно У богатых свои привычки
    У богатых свои привычки скачать торрент
    У богатых свои привычки смотреть онлайн
    Cкачать фильм У богатых свои привычки бесплатно
    У богатых свои привычки скачать торрент в хорошем качестве
    У богатых свои привычки смотреть онлайн бесплатно в хорошем качестве


    Вы не можете начинать темы
    Вы не можете отвечать на сообщения
    Вы не можете редактировать свои сообщения
    Вы не можете удалять свои сообщения
    Вы не можете голосовать в опросах
    Вы не можете прикреплять файлы к сообщениям
    Вы можете скачивать файлы