Ссылка на приватное зеркало всего за 1$. Внимание количество ограничено!!!

OK

1+1

iTunes

мы

OK

1

WEB-DLRip

Джокер

Пифагор

Ведьмак / The Witcher сериал

iTunes

ПШазам

ОК

Оно 2

iTunes

30
pack

Вам бонус

ВАЖНО

!!Акция!!

Alien_RageХит недели

RePack

Resident Evil 21

ИГРА 18+

pack

RePack

jed

RePack

fifa19

RePack

Assassins Creed: Odyssey

RePack

NEED FOR SPEED™ PAYBACK

4 сезон

9 сезон

Бесстыжие 9 сезон

Все сериалы

все сериалы на PB.wtf

RePack

FAR CRY 5
  

Транс-Пекос / Transpecos (Грег Куидар) [2016, триллер, BDRip 720p] MVO [Официальный звук] pb.wtf

Транс-Пекос через торрент pb.wtf

Размер: 3.89 GB | Добавлен: 1 год 9 мес. назад | Торрент скачан:30 раз
Скачать  

19-04-2018 18:23 Транс-Пекос Скачать торрент  

Транс-Пекос / TranspecosГод выпуска: 2016
Страна: США
Жанр: триллер
Продолжительность: 01:27:30
Перевод: Профессиональный (многоголосый) | Официальный звук
Субтитры: отсутствуют

Режиссер: Грег Куидар

rating

В ролях:

Джонни Симмонс, Гэбриел Луна, Клифтон Коллинз мл., Дэвид Экорд, Оскар Авила, Луис Бордонада, Уилл Бриттейн, Джейк Локетт

Описание:

Трём сотрудникам пограничной службы, работающим на отдалённом КПП посреди пустыни, содержимое багажника одного автомобиля принесёт большие перемены. Их следующие 24 часа — это путь полный предательства, который может стоить им жизни...

Качество: BDRip 720p
Формат: MKV

Видео: 5792 kb/s, 1280x536
Аудио: Русский (AC3, 2 ch, 448 Кбит/с)
скриншот  скриншот  скриншот  

Общее
Уникальный идентификатор : 228727713104224806553096397048784568813 (0xAC135AECEFBDD9C2AE7F7D67CCF741ED)
Полное имя : D:\Transpecos.2016.Pof.BDRip.72Op_KOSHARA.mkv
Формат : Matroska
Версия формата : Version 2
Размер файла : 3,89 Гбайт
Продолжительность : 1 ч. 27 м.
Режим общего битрейта : Переменный
Общий поток : 6367 Кбит/сек
Дата кодирования : UTC 2018-04-19 13:44:42
Программа кодирования : mkvmerge v8.3.0 ('Over the Horizon') 64bit
Библиотека кодирования : libebml v1.3.1 + libmatroska v1.4.2

Видео
Идентификатор : 1
Формат : AVC
Формат/Информация : Advanced Video Codec
Профиль формата : High@L4.1
Параметр CABAC формата : Да
Параметр RefFrames формата : 4 кадра
Идентификатор кодека : V_MPEG4/ISO/AVC
Продолжительность : 1 ч. 27 м.
Вид битрейта : Переменный
Битрейт : 5792 Кбит/сек
Максимальный битрейт : 6800 Кбит/сек
Ширина : 1280 пикселей
Высота : 536 пикселей
Соотношение сторон : 2,40:1
Режим частоты кадров : Постоянный
Частота кадров : 23,976 (24000/1001) кадра/сек
Стандарт вещания : Component
Цветовое пространство : YUV
Субдискретизация насыщенности : 4:2:0
Битовая глубина : 8 бит
Тип развёртки : Прогрессивная
Бит/(Пиксели*Кадры) : 0.352
Размер потока : 3,54 Гбайт (91%)
Default : Да
Forced : Нет
Цветовой диапазон : Limited
Основные цвета : BT.709
Характеристики трансфера : BT.709
Коэффициенты матрицы : BT.709

Аудио
Идентификатор : 2
Формат : AC-3
Формат/Информация : Audio Coding 3
Расширение режима : CM (complete main)
Параметр Endianness формата : Big
Идентификатор кодека : A_AC3
Продолжительность : 1 ч. 27 м.
Вид битрейта : Постоянный
Битрейт : 448 Кбит/сек
Каналы : 2 канала
Расположение каналов : Front: L R
Частота : 48,0 КГц
Частота кадров : 31,250 кадров/сек (1536 spf)
Метод сжатия : С потерями
Размер потока : 280 Мбайт (7%)
Default : Да
Forced : Нет

pb.wtf



Скачать Транс-Пекос через торрент http://s010.radikal.ru/i313/1705/83/4fdc43f98159.png Скачать фильм Транс-Пекос через торрент бесплантно в хорошем качестве Описание: Трём сотрудникам пограничной службы, работающим на отдалённом КПП посреди пустыни, содержимое багажника одного автомобиля ... 7 10 3
Торрент: Зарегистрирован [2018-04-19 18:23] · скачан: 30 раз
Статус: # сомнительно
Размер: 3.89 GB
Как cкачать? Как скачать Транс-Пекос через торрент | qTorrent

% Раздел Тема Автор DL S | L
T Фильмы (мультфильмы) cо спонсором показа (Новинки AVI/MKV) [ 1.37 GB ] Транс-Пекос / Transpecos [2016 HDRip] MVO [Официальный звук] bober100 Скачать
1 | 0

28-11-2019 20:33  

Отключить всю рекламу на сайте


    Дорогой пользователь! Огромная просьба, поблагодарите релизера, оцените раздачу и оставьте свои комментарий, если Вы скачали Транс-Пекос через торрент бесплатно! Внесите свою лепту в развитие PiratBit!
    Комментировать посты могут только пользователи прошедшие не сложную регистрацию
    Показать сообщения:    

    Транс-Пекос через торрент
    Скачать бесплатно Транс-Пекос
    Транс-Пекос скачать торрент
    Транс-Пекос смотреть онлайн
    Cкачать фильм Транс-Пекос бесплатно
    Транс-Пекос скачать торрент в хорошем качестве
    Транс-Пекос смотреть онлайн бесплатно в хорошем качестве


    Вы не можете начинать темы
    Вы не можете отвечать на сообщения
    Вы не можете редактировать свои сообщения
    Вы не можете удалять свои сообщения
    Вы не можете голосовать в опросах
    Вы не можете прикреплять файлы к сообщениям
    Вы можете скачивать файлы