новый адрес
Мега распродажа FORZA HORIZON 4 ULTIMATE+ВСЕ DLC+ОНЛАЙН всего за 499р. 349 руб. (супер цена). Внимание количество ограничено!!!

iTunes

1+1

iTunes

мы

iTunes

1

iTunes

Чернобыль

iTunes

Ральф против интернета

Лицензия

ПШазам

Лицензия

Игра престолов

Лицензия

30
pack

ВАЖНО

!!Акция!!

Alien_RageХит недели

RePack

Resident Evil 21

ИГРА 18+

pack

RePack

Metro:Exodus

!!Акция!!

Alien_Rage

RePack

fifa19

RePack

Assassins Creed: Odyssey

RePack

NEED FOR SPEED™ PAYBACK

3 сезон

9 сезон

Бесстыжие 9 сезон

Все сериалы

все сериалы на PB.wtf

RePack

FAR CRY 5
Ребята, катастрофически не хватает 1900р. для оплаты серверов за Октябрь (всвязи с блокировками трафик упал в 3 раза), 1-2р., выручайте.
  

Люблю тебя, жизнь (Mихaил Epшoв) [1960, СССР, драма, SATRip от AVP Studio] pb.wtf

Люблю тебя, жизнь через торрент pb.wtf

Размер: 746 MB | Добавлен: 1 год 6 мес. назад | Торрент скачан:13 раз
Скачать  

20-04-2018 07:56 Люблю тебя, жизнь Скачать торрент  

Люблю тебя, жизнь
Страна: СССР
Производство: Ленфильм

Жанр: драма
Год выпуска: 1960
Продолжительность: 01:26:07

Перевод: Не требуется
Cубтитры: нет
Оригинальная аудиодорожка: русский

Режиссер: Mихaил Epшoв

В ролях:
Геннадий Вернов, Ариадна Шенгелая, Ирина Бунина, Алексей Кожевников, Галина Инютина, Владимир Честноков, Вера Кузнецова, Майя Блинова, Александр Афанасьев, Долорес Столбова, Валентина Хмара, Лилия Гурова, Людмила Колпакова, Коля Сергеичев...
Об актёрах подробней

Описание:
Инженер кондитерской фабрики Тимофей Корнеев вступает в партию и принимает поздравления от Лены (Ариадна Шенгелая), которую давно любит. Они гуляют по ночному городу, а утром Тимофей встречает странного мальчика Егорку, что-то лепечущего о всевышнем. Узнав, что Егорка живет с главой секты иеговистов, куда ходит и молодая работница фабрики Груня (Ирина Бунина), Тимофей решает вызволить мальчика и девушку из секты.

Исходник: DVB
Качество видео: SATRip
Формат видео: AVI

Видео: 704x288 (2,40:1), 25,000 кадров/сек, XviD ~ 1009 kbps avg, 0.199 bit/pixel
Аудио: 48 kHz, Dolby Digital AC3 2.0, 192 kbps

Раздача от:
Общее
Полное имя : Lyublyu.tebya,zhizn.1960.SATRip_[New-team]_by_AVP_Studio.avi
Формат : AVI
Формат/Информация : Audio Video Interleave
Размер файла : 746 Мбайт
Продолжительность : 1 ч. 26 м.
Общий поток : 1210 Кбит/сек
Программа кодирования : VirtualDubMod 1.5.10.3 | www.virtualdub-fr.org || (build 2550/release)
Библиотека кодирования : VirtualDubMod build 2550/release

Видео
Идентификатор : 0
Формат : MPEG-4 Visual
Профиль формата : Advanced Simple@L5
Настройки формата : BVOP1 / Custom Matrix
Параметр BVOP формата : 1
Параметр QPel формата : Нет
Параметр GMC формата : Без точки перехода
Параметр матрицы формата : Выборочная
Идентификатор кодека : XVID
Идентификатор кодека/Подсказка : XviD
Продолжительность : 1 ч. 26 м.
Битрейт : 1009 Кбит/сек
Ширина : 704 пикселя
Высота : 288 пикселей
Соотношение сторон : 2,40:1
Частота кадров : 25,000 кадров/сек
Цветовое пространство : YUV
Субдискретизация насыщенности : 4:2:0
Битовая глубина : 8 бит
Тип развёртки : Прогрессивная
Метод сжатия : С потерями
Бит/(Пиксели*Кадры) : 0.199
Размер потока : 621 Мбайт (83%)
Библиотека кодирования : XviD 73

Аудио
Идентификатор : 1
Формат : AC-3
Формат/Информация : Audio Coding 3
Идентификатор кодека : 2000
Продолжительность : 1 ч. 26 м.
Вид битрейта : Постоянный
Битрейт : 192 Кбит/сек
Каналы : 2 канала
Расположение каналов : Front: L R
Частота : 48,0 КГц
Частота кадров : 31,250 кадров/сек (1536 SPF)
Битовая глубина : 16 бит
Метод сжатия : С потерями
Размер потока : 118 Мбайт (16%)
Выравнивание : Разделение по промежуткам
Продолжительность промежутка : 40 мс. (1,00 видеокадр)
Время предзагрузки промежутка : 500 мс
pb.wtf



Скачать Люблю тебя, жизнь через торрент http://i5.imageban.ru/out/2018/04/20/d8d74945d971f1fcd7d495f2eff3f7a6.png Скачать фильм Люблю тебя, жизнь через торрент бесплантно в хорошем качестве Описание:Инженер кондитерской фабрики Тимофей Корнеев вступает в партию и принимает поздравления от Лены (Ариадна Шенгелая), которую давно ... 5 10 1
Info! Золотая раздача, скачанное не засчитывается.
Торрент: Зарегистрирован [2018-04-20 07:56] · скачан: 13 раз
Статус: √ проверено
Размер: 746 MB
Как cкачать? Как скачать Люблю тебя, жизнь через торрент | qTorrent

% Раздел Тема Автор DL S | L
Кино СССР [ 1.09 GB ] Люблю тебя жизнь [1960 СССР SATRip-AVC от AVP Studio] AVP Studio Скачать
1 | 0


>> Регистрируемся здесь <<






Отзывы и комментарии о схеме читаем и пишем здесь: ---> Отзывы и комментарии о схеме

Новые благодарочки в телеграм довольных пользователей:
скриншот   скриншот   скриншот   скриншот   скриншот
    Дорогой пользователь! Огромная просьба, поблагодарите релизера, оцените раздачу и оставьте свои комментарий, если Вы скачали Люблю тебя, жизнь через торрент бесплатно! Внесите свою лепту в развитие PiratBit!
    Комментировать посты могут только пользователи прошедшие не сложную регистрацию
    Показать сообщения:    

    Люблю тебя, жизнь через торрент
    Скачать бесплатно Люблю тебя, жизнь
    Люблю тебя, жизнь скачать торрент
    Люблю тебя, жизнь смотреть онлайн
    Cкачать фильм Люблю тебя, жизнь бесплатно
    Люблю тебя, жизнь скачать торрент в хорошем качестве
    Люблю тебя, жизнь смотреть онлайн бесплатно в хорошем качестве


    Вы не можете начинать темы
    Вы не можете отвечать на сообщения
    Вы не можете редактировать свои сообщения
    Вы не можете удалять свои сообщения
    Вы не можете голосовать в опросах
    Вы не можете прикреплять файлы к сообщениям
    Вы можете скачивать файлы