Ссылка на приватное зеркало нашего сайта всего за 1$. Внимание количество ограничено!!!

2 сезон

iTunes

1 сезон

1

2 сезон

2 сезон

iTunes

1 сезон

RePack

30

Новинка

ВАЖНО

ИГРА 18+

pack

RePack

MK11
pack

Забери бонус

RePack

jed

!!Акция!!

Alien_Rage

RePack

fifa19

RePack

Assassins Creed: Odyssey

RePack

NEED FOR SPEED™ PAYBACK

4 сезон

9 сезон

Бесстыжие 9 сезон

Все сериалы

все сериалы на PB.wtf

RePack

FAR CRY 5
  

Бессонница / Insomnia / Сезон: 1 / Серия 1-8 из 8 (Вячеслав Яковлев) [2018, США, драма, боевик, триллер, WEBRip] MVO [BaibaKo] pb.wtf

Бессонница через торрент pb.wtf

Размер: 4.83 GB | Добавлен: 2 года 5 мес. назад | Торрент скачан:27 раз
Скачать  

20-04-2018 09:27 Бессонница Скачать торрент  

Бессонница / Insomnia


  • Год выпуска: 2018
  • Страна: США
  • Жанр: драма, боевик, триллер
  • Продолжительность: ~ 00:50:00 (Серия)
  • Перевод: Профессиональный многоголосый [BaibaKo]
  • Режиссер: Вячеслав Яковлев
  • В ролях:
    Алекс Джей, Дилан Эверетт, Шон Сайпос, Ингеборга Дапкунайте, Алекс Маллари мл., Павел Личникофф, Мэттью Беннетт, Эрика Кэрролл, Карен ЛеБлан, Патрик МакКенна, Сабина Ахмедова, Валерий Смекалов



  • «Бессонница» — это незаконная смертельно опасная игра, которая проходит раз в год в подпольном казино. Двадцати участникам вводят специальный препарат, моментально убивающий человека, если он уснет. Игрокам приходится бороться не только со сном, но и друг с другом, пока в финале не останется кто-то один. За ходом кровавой схватки наблюдают богатые и влиятельные персоны, которые делают миллионные ставки на жизни людей.
    Сериал «Бессонница» является американской адаптацией одноименного российского проекта 2013 года.
  • Рейтинг:

    rating
  • Качество: WEBRip
  • Формат: AVI
  • Видео кодек: XviD
  • Аудио кодек: MP3
  • Видео: 1499 Кбит/сек, 720*400 (16:9), в 60,000 кадров/сек, MPEG-4 Visual (XviD)
  • Аудио: русский 192 Кбит/сек, 48,0 КГц, 2 канала, MPEG Audio (MP3) |[BaibaKo]|
  • Релиз от: GEKADOL

    Внимание! Раздача ведётся путём добавления новых серий; при каждом добавлении создаётся новый торрент. Чтобы начать докачку новой серии, пользователям необходимо сделать следующее:
    (1) остановить скачивание,
    (2) удалить старый торрент у себя из клиента (старые серии удалять не надо),
    (3) скачать новый торрент и запустить его у себя в клиенте вместо старого, при этом указать клиенту путь в старую папку куда и должно происходить скачивание новых серий.
    Ваш клиент при этом должен произвести хеширование (проверку) старой папки (если не производит сам - помогите ему сделать это), и будет докачивать только те серии которых у вас ещё нет. Старые серии при этом не удаляются, а продолжают раздаваться!
    Eсли вы уже удалили старые серии, то предотвратить повторную закачку старых серий можно, отжав галочку в соответствующих местах при запуске нового торрента. По возможности, желательно не удалять старые серии как можно дольше чтобы релизёр не столько продолжал раздавать старые серии, а смог сконцентрироваться на новых.
    Общее
    Полное имя : F:\Бессонница (Insomnia)\Insomnia.s01e01.WEBRip.XviD..Rus.BaibaKo.avi
    Формат : AVI
    Формат/Информация : Audio Video Interleave
    Размер файла : 609 Мбайт
    Продолжительность : 49 м. 43 с.
    Общий поток : 1711 Кбит/сек

    Видео
    Идентификатор : 0
    Формат : MPEG-4 Visual
    Профиль формата : Advanced Simple@L5
    Настройки формата : BVOP1
    Параметр BVOP формата : 1
    Параметр QPel формата : Нет
    Параметр GMC формата : Без точки перехода
    Параметр матрицы формата : Default (H.263)
    Идентификатор кодека : XVID
    Идентификатор кодека/Подсказка : XviD
    Продолжительность : 49 м. 43 с.
    Битрейт : 1499 Кбит/сек
    Ширина : 720 пикселей
    Высота : 400 пикселей
    Соотношение сторон : 16:9
    Частота кадров : 60,000 кадров/сек
    Цветовое пространство : YUV
    Субдискретизация насыщенности : 4:2:0
    Битовая глубина : 8 бит
    Тип развёртки : Прогрессивная
    Метод сжатия : С потерями
    Бит/(Пиксели*Кадры) : 0.087
    Размер потока : 533 Мбайт (88%)
    Библиотека кодирования : XviD 67

    Аудио
    Идентификатор : 1
    Формат : MPEG Audio
    Версия формата : Version 1
    Профиль формата : Layer 3
    Настройки формата : Joint stereo / MS Stereo
    Идентификатор кодека : 55
    Идентификатор кодека/Подсказка : MP3
    Продолжительность : 49 м. 43 с.
    Вид битрейта : Постоянный
    Битрейт : 192 Кбит/сек
    Каналы : 2 канала
    Частота : 48,0 КГц
    Метод сжатия : С потерями
    Размер потока : 68,3 Мбайт (11%)
    Выравнивание : Соединение по промежуткам
    Продолжительность промежутка : 24 мс. (1,44 видеокадр)
    Библиотека кодирования : LAME3.100

    Скриншоты:
    скриншот   скриншот   скриншот   скриншот   скриншот   скриншот   скриншот  
    скриншот  

    Раздача ведётся путём добавления новых серий. Добавлена 8 серия (23.06.2018).Просьба перекачать торрент файл.

    pb.wtf



  • Скачать Бессонница через торрент http://pic1.kartinco.top/images/11/lju4u.jpg Скачать фильм Бессонница через торрент бесплантно в хорошем качестве qw.png «Бессонница» — это незаконная смертельно опасная игра, которая проходит раз в год в подпольном казино. Двадцати участникам вводят ... 8.2 10 5
    Info! Золотая раздача, скачанное не засчитывается.
    Торрент: Зарегистрирован [2018-06-23 00:04] · скачан: 27 раз
    Статус: √ проверено
    Размер: 4.83 GB
    Как cкачать? Как скачать Бессонница через торрент | qTorrent

    % Раздел Тема Автор DL S | L
    Зарубежные сериалы [ 22.19 GB ] Бессонница / Insomnia / Сезон: 1 / Серии: 1-8 из 8 [2018 WEBRip 1080p] MVO [BaibaKo] bober100 Скачать
    1 | 0


    Последний раз редактировалось: GEKADOL (2018-06-23 00:04), всего редактировалось 4 раз(а)

    28-11-2019 20:33  

    Отключить всю рекламу на сайте

    20-04-2018 11:31 Бессонница Скачать торрент  

    Я бы выиграл . Бессонница постоянная .pb.wtf



    20-04-2018 14:28 Бессонница Скачать торрент  

    sculptor18 писал(а):

    Я бы выиграл . Бессонница постоянная .

    Физический труд,не пробовал?pb.wtf



    27-04-2018 13:52 Бессонница Скачать торрент  

    hohol270880 писал(а):

    sculptor18 писал(а):

    Я бы выиграл . Бессонница постоянная .

    Физический труд,не пробовал?

    судя по твоеи аве ты точно не пробовал . А я пробовал - не пошло.pb.wtf



    27-04-2018 17:10 Бессонница Скачать торрент  

    Режиссер: Вячеслав Яковлев-стоит смотреть что там Славик намутил?pb.wtf



    06-05-2018 10:21 Бессонница Скачать торрент  

    наша бессоница интересней , хотя эту еще не смотрел !pb.wtf



      Дорогой пользователь! Огромная просьба, поблагодарите релизера, оцените раздачу и оставьте свои комментарий, если Вы скачали Бессонница через торрент бесплатно! Внесите свою лепту в развитие PiratBit!
      Комментировать посты могут только пользователи прошедшие не сложную регистрацию
      Показать сообщения:    

      Бессонница через торрент
      Скачать бесплатно Бессонница
      Бессонница скачать торрент
      Бессонница смотреть онлайн
      Cкачать фильм Бессонница бесплатно
      Бессонница скачать торрент в хорошем качестве
      Бессонница смотреть онлайн бесплатно в хорошем качестве


      Вы не можете начинать темы
      Вы не можете отвечать на сообщения
      Вы не можете редактировать свои сообщения
      Вы не можете удалять свои сообщения
      Вы не можете голосовать в опросах
      Вы не можете прикреплять файлы к сообщениям
      Вы можете скачивать файлы