2 сезон

iTunes

MVO

1

2 сезон

iTunes

iTunes

1 сезон

RePack

30

Новинка

ВАЖНО

ИГРА 18+

pack

RePack

MK11
pack

Легкие деньги

RePack

jed

RePack

fifa19

RePack

RDR2

RePack

NEED FOR SPEED™ PAYBACK

4 сезон

9 сезон

Бесстыжие 9 сезон

Все сериалы

все сериалы на PB.wtf

RePack

FAR CRY 5

Anonymous, добрый вечер, мы не успеваем собрать деньги на оплату серверов за декабрь и январь, помогите нам пожалуйста в это трудное время. В качестве благодарности мы отключим Вам всю рекламу на сайте (укажите свой ник в строку Ваше имя)!

×
  
Magnet ссылка

Секретное досье / The Post (Стивен Спилберг) [2017 г., триллер, драма, биография, история, BDRip-AVC, Дубляж iTunes] pb.wtf

Секретное досье через торрент pb.wtf

Раздают: 1 [ 0 KB/s ]
Размер: 2.13 GB | Добавлен: 2 года 9 мес. назад | Торрент скачан:1070 раз
Скачать  

20-04-2018 10:54 Секретное досье Скачать торрент  

Секретное досье / The Post
Год выпуска: 2017
Страна: Великобритания, США
Жанр: триллер, драма, биография, история
Продолжительность: 01:55:58
Перевод: Дубляж iTunes
Субтитры: русские, английские

Режиссер: Стивен Спилберг

Премьера в мире: 22 декабря 2017

rating

В ролях: Мэрил Стрип, Том Хэнкс, Сара Полсон, Боб Оденкёрк, Трэйси Леттс, Брэдли Уитфорд, Брюс Гринвуд, Мэттью Рис, Элисон Бри, Кэрри Кун

Описание: История Кэтрин Грэм, первой женщины-издателя газеты «Вашингтон пост», и редактора Бена Брэдли. Они вступают в гонку с «Нью-Йорк таймс» за право пролить свет на государственные тайны, скрывавшиеся более 30 лет. Журналистам придется преодолеть свои разногласия и рискнуть карьерой и свободой, чтобы мир узнал правду.

Качество: BDRip-AVC
Формат: MKV
Видео кодек: H.264
Аудио кодек: AC3
Видео: AVC/H.264, 1024x552, ~1795 kbps
Аудио#1: AC-3, 48.0 KHz, 6 ch, 384 Kbps | Русский
Аудио#2: AC-3, 48.0 KHz, 6 ch, 448 Kbps | Английский
скриншот   скриншот   скриншот   скриншот  

Общее
Уникальный идентификатор : 232810004139204938523303918650218202320 (0xAF259369C19473138C6A8EAAE66B44D0)
Полное имя : F:\Sekretnoye.Dosye.2017.DUAL.BDRip.x264.NNM-CLUB.mkv
Формат : Matroska
Версия формата : Version 4 / Version 2
Размер файла : 2,13 Гбайт
Продолжительность : 1 ч. 55 м.
Общий поток : 2623 Кбит/сек
Название фильма : The Post (2017)
Дата кодирования : UTC 2018-04-19 19:34:43
Программа кодирования : mkvmerge v5.9.0 ('On The Loose') built on Dec 15 2012 16:39:58
Библиотека кодирования : libebml v1.3.0 + libmatroska v1.4.0

Видео
Идентификатор : 1
Формат : AVC
Формат/Информация : Advanced Video Codec
Профиль формата : High@L4.1
Параметр CABAC формата : Да
Параметр ReFrames формата : 12 кадров
Идентификатор кодека : V_MPEG4/ISO/AVC
Продолжительность : 1 ч. 55 м.
Битрейт : 1795 Кбит/сек
Ширина : 1024 пикселя
Высота : 552 пикселя
Соотношение сторон : 1,85:1
Режим частоты кадров : Постоянный
Частота кадров : 23,976 (24000/1001) кадра/сек
Цветовое пространство : YUV
Субдискретизация насыщенности : 4:2:0
Битовая глубина : 8 бит
Тип развёртки : Прогрессивная
Бит/(Пиксели*Кадры) : 0.132
Размер потока : 1,41 Гбайт (66%)
Заголовок : potroks
Библиотека кодирования : x264 core 155 r2901M 7d0ff22
Настройки программы : cabac=1 / ref=12 / deblock=1:-2:-2 / analyse=0x3:0x133 / me=umh / subme=11 / psy=1 / psy_rd=0.98:0.02 / mixed_ref=1 / me_range=48 / chroma_me=1 / trellis=2 / 8x8dct=1 / cqm=0 / deadzone=21,11 / fast_pskip=0 / chroma_qp_offset=-3 / threads=9 / lookahead_threads=2 / sliced_threads=0 / nr=0 / decimate=0 / interlaced=0 / bluray_compat=0 / constrained_intra=0 / bframes=12 / b_pyramid=2 / b_adapt=2 / b_bias=0 / direct=3 / weightb=1 / open_gop=0 / weightp=2 / keyint=240 / keyint_min=23 / scenecut=40 / intra_refresh=0 / rc_lookahead=100 / rc=2pass / mbtree=0 / bitrate=1795 / ratetol=1.0 / qcomp=0.70 / qpmin=0 / qpmax=69 / qpstep=4 / cplxblur=20.0 / qblur=0.5 / vbv_maxrate=50000 / vbv_bufsize=50000 / nal_hrd=none / filler=0 / ip_ratio=1.40 / pb_ratio=1.30 / aq=2:0.80
Язык : English
Default : Да
Forced : Нет

Аудио #1
Идентификатор : 2
Формат : AC-3
Формат/Информация : Audio Coding 3
Расширение режима : CM (complete main)
Параметр Endianness формата : Big
Идентификатор кодека : A_AC3
Продолжительность : 1 ч. 55 м.
Вид битрейта : Постоянный
Битрейт : 384 Кбит/сек
Каналы : 6 каналов
Расположение каналов : Front: L C R, Side: L R, LFE
Частота : 48,0 КГц
Частота кадров : 31,250 кадров/сек (1536 spf)
Битовая глубина : 16 бит
Метод сжатия : С потерями
Размер потока : 319 Мбайт (15%)
Заголовок : Dub | DD 5.1 @ 384 kbps - iTunes
Язык : Russian
Default : Да
Forced : Да

Аудио #2
Идентификатор : 3
Формат : AC-3
Формат/Информация : Audio Coding 3
Расширение режима : CM (complete main)
Параметр Endianness формата : Big
Идентификатор кодека : A_AC3
Продолжительность : 1 ч. 55 м.
Вид битрейта : Постоянный
Битрейт : 448 Кбит/сек
Каналы : 6 каналов
Расположение каналов : Front: L C R, Side: L R, LFE
Частота : 48,0 КГц
Частота кадров : 31,250 кадров/сек (1536 spf)
Битовая глубина : 16 бит
Метод сжатия : С потерями
Размер потока : 372 Мбайт (17%)
Заголовок : Original | DD 5.1 @ 448 kbps
Язык : English
Default : Нет
Forced : Нет

Текст #1
Идентификатор : 4
Формат : UTF-8
Идентификатор кодека : S_TEXT/UTF8
Идентификатор кодека/Информация : UTF-8 Plain Text
Заголовок : Focs
Язык : Russian
Default : Нет
Forced : Нет

Текст #2
Идентификатор : 5
Формат : UTF-8
Идентификатор кодека : S_TEXT/UTF8
Идентификатор кодека/Информация : UTF-8 Plain Text
Заголовок : Full
Язык : English
Default : Нет
Forced : Нет

Текст #3
Идентификатор : 6
Формат : UTF-8
Идентификатор кодека : S_TEXT/UTF8
Идентификатор кодека/Информация : UTF-8 Plain Text
Заголовок : SDH
Язык : English
Default : Нет
Forced : Нет

Текст #4
Идентификатор : 7
Формат : UTF-8
Идентификатор кодека : S_TEXT/UTF8
Идентификатор кодека/Информация : UTF-8 Plain Text
Заголовок : SDH-Colored
Язык : English
Default : Нет
Forced : Нет

Меню
00:00:00.000 : en:(01)00:00:00:000
00:05:01.926 : en:(02)00:05:01:926
00:10:08.733 : en:(03)00:10:08:733
00:12:32.793 : en:(04)00:12:32:793
00:16:22.398 : en:(05)00:16:22:398
00:19:19.616 : en:(06)00:19:19:616
00:24:53.325 : en:(07)00:24:53:325
00:30:23.988 : en:(08)00:30:23:988
00:34:51.672 : en:(09)00:34:51:672
00:39:08.679 : en:(10)00:39:08:679
00:43:25.811 : en:(11)00:43:25:811
00:48:20.564 : en:(12)00:48:20:564
00:54:38.692 : en:(13)00:54:38:692
00:59:39.784 : en:(14)00:59:39:784
01:03:49.116 : en:(15)01:03:49:116
01:09:59.570 : en:(16)01:09:59:570
01:14:04.857 : en:(17)01:14:04:857
01:20:20.273 : en:(18)01:20:20:273
01:24:30.732 : en:(19)01:24:30:732
01:30:22.667 : en:(20)01:30:22:667
01:35:23.759 : en:(21)01:35:23:759
01:38:46.545 : en:(22)01:38:46:545
01:43:07.723 : en:(23)01:43:07:723
01:49:27.852 : en:(24)01:49:27:852
01:55:58.368 : en:(25)01:55:58:368

pb.wtf



Скачать Секретное досье через торрент http://i105.fastpic.ru/big/2018/0420/8b/a5dde64d8afdb6a8483385fd8c18c78b.jpg Скачать фильм Секретное досье через торрент бесплантно в хорошем качестве Описание: История Кэтрин Грэм, первой женщины-издателя газеты «Вашингтон пост», и редактора Бена Брэдли. Они вступают в гонку с «Нью-Йорк ... 7.6 10 17
Торрент: Зарегистрирован [2018-04-20 10:54] · скачан: 1 070 раз
Статус: √ проверено
Размер: 2.13 GB
Как cкачать? Как скачать Секретное досье через торрент | UTorrent

% Раздел Тема Автор DL S | L
Ultra HD (UHD: 2K, 4K, 8K) — видео сверхвысокой чёткости [ 60.99 GB ] Секретное досье / The Post [2017 биография UHD Blu-ray 2160p] sheker187 Скачать
1 | 0
Фильмы 2017 [DVDrip, WEB-DLRip, HDrip] (DUB, MVO) [ 2.18 GB ] Секретное досье / The Post [2017 биография история BDRip] - [] Twi7ter Скачать
1 | 0
Фильмы 2017 [DVDrip, WEB-DLRip, HDrip] (DUB, MVO) [ 1.46 GB ] Секретное досье / The Post [2017 биография история BDRip] - [] Twi7ter Скачать
1 | 0
Ultra HD (UHD: 2K, 4K, 8K) — видео сверхвысокой чёткости [ 56.64 GB ] Секретное досье / The Post [2017 биография история UHD BDRemux 2160p] MVO [HDrezka Studio] +DUB [] bober100 Скачать
1 | 0
Фильмы (Blu-ray, BD-Remux, HDDVD) [ 45.74 GB ] Секретное досье / The Post [2017 биография история Blu-ray EUR 1080p] DUB [] bober100 Скачать
1 | 0
Фильмы 2017 [DVDrip, WEB-DLRip, HDrip] (DUB, MVO) [ 1.46 GB ] Секретное досье / The Post [2017 биография история BDRip] DUB [ BD EUR] bober100 Скачать
1 | 0
Фильмы (Blu-ray, BD-Remux, HDDVD) [ 29.67 GB ] Секретное досье / The Post [2017 биография история BD Remux 1080p] DUB [] bober100 Скачать
1 | 0

28-11-2019 20:33  

Отключить всю рекламу на сайте

11-07-2018 09:49 Секретное досье Скачать торрент  

хороший фильмpb.wtf



    Дорогой пользователь! Огромная просьба, поблагодарите релизера, оцените раздачу и оставьте свои комментарий, если Вы скачали Секретное досье через торрент бесплатно! Внесите свою лепту в развитие PiratBit!
    Комментировать посты могут только пользователи прошедшие не сложную регистрацию
    Показать сообщения:    

    Секретное досье через торрент
    Скачать бесплатно Секретное досье
    Секретное досье скачать торрент
    Секретное досье смотреть онлайн
    Cкачать фильм Секретное досье бесплатно
    Секретное досье скачать торрент в хорошем качестве
    Секретное досье смотреть онлайн бесплатно в хорошем качестве


    Вы не можете начинать темы
    Вы не можете отвечать на сообщения
    Вы не можете редактировать свои сообщения
    Вы не можете удалять свои сообщения
    Вы не можете голосовать в опросах
    Вы не можете прикреплять файлы к сообщениям
    Вы можете скачивать файлы