2 сезон

iTunes

MVO

1

2 сезон

iTunes

iTunes

1 сезон

RePack

30

Новинка

ВАЖНО

ИГРА 18+

pack

RePack

MK11
pack

Легкие деньги

RePack

jed

RePack

fifa19

RePack

RDR2

RePack

NEED FOR SPEED™ PAYBACK

4 сезон

9 сезон

Бесстыжие 9 сезон

Все сериалы

все сериалы на PB.wtf

RePack

FAR CRY 5

Anonymous, добрый вечер, мы не успеваем собрать деньги на оплату серверов за декабрь и январь, помогите нам пожалуйста в это трудное время. В качестве благодарности мы отключим Вам всю рекламу на сайте (укажите свой ник в строку Ваше имя)!

×
  
Magnet ссылка

Раскрашенная кожа 2 в 3Д / Painted Skin: The Resurrection 3D (Уэршань / Wuershan) [2012, Фэнтези, боевик, триллер, драма, BDrip, 1080p] OverUnder / Вертикальная стереопара pb.wtf

Раскрашенная кожа 2 в 3Д через торрент pb.wtf

Размер: 23.66 GB | Добавлен: 2 года 9 мес. назад | Торрент скачан:5 раз
Скачать  

20-04-2018 15:32 Раскрашенная кожа 2 в 3Д Скачать торрент  

Раскрашенная кожа 2 / Painted Skin: The Resurrection / Hua Pi 2 3D

Год выпуска: 2012
Страна: Китай
Жанр: Фэнтези, боевик, триллер, драма
Продолжительность: 02:11:32

Перевод: Профессиональный (двухголосый закадровый) - НТВ+
Перевод 2: Профессиональный (многоголосый закадровый) - GREEN TEA
Русские субтитры: нет
Режиссер на русском: Уэршань / Wuershan

В ролях: Чжоу Сюнь, Чэнь Кунь, Вики Чжао, Ян Ми, Уильям Фэн, Фэй Сян, Тинцзя Чэнь, Лу Нуо, , Ли Бинюань

Описание: Согласно древней легенде,чтобы стать смертным, демон должен прожить на земле несколько сот лет; но и этого недостаточно, чтобы ощутить весь спектр человеческих эмоций и научиться грустить. Для получения этих чувств демон должен найти человека, готового пожертвовать собственными чувствами и собственной бессмертной душой. Что может остановить демона, жаждущего познания? Только человек, который будет сражаться за свою душу и души других!

Сэмпл: http://sendfile.su/1414472

Качество: BDrip, 1080p
Контейнер: MKV
Формат 3D: OverUnder / Вертикальная стереопара
Порядок ракурсов: левый ракурс первый
Видео кодек: x264
Аудио кодек: AC3
Видео: AVC / High@L5.0 / 23,976 fps / 1920х2160 / 23,5 Мбит/сек
Аудио: Русский / AC3 / 48 KHz / 2.0 ch / 192 Кбит/сек( НТВ+)
Аудио 2: Русский / DTS / 48 KHz / 5.1 ch / 1510 Кбит/сек(MVO - GREEN TEA)

ВНИМАНИЕ ! На встроенных ТВ-плеерах работать не будет!!!

ТВ Samsung в названии которого есть надпись Ultra HD , и LG Ultra HD 800 серии, LG C6P, Xiaomi Mi TV 2 воспроизводят полные стереопары встроенными плеерами
Железные плееры на которых воспроизводятся полные стереопары:Popcorn C-200 , Dune HD Smart D1 , Dune HD DUO , Dune HD Smart H1 , Dune HD Smart B1 , Dune HD Max , Dune HD TV-303D, Dune HD TV-102, Dune HD Base 3D, Philips HMP7001, Aura HD, MECOOL BB2
Чтобы изображение было на весь экран в плеере выставляем, если рип 1920х1600 - то выставляем 2.35:1 , если 1920х2160 - то выставляем 16:9
Общее
Уникальный идентификатор : 234866376521430770507608163397739057739 (0xB0B19E66380324589EBB23F20DED924B)
Полное имя : G:\видео\Painted Skin The Resurrection.Rip by SeRoGa00.mkv
Формат : Matroska
Версия формата : Version 2
Размер файла : 23,7 Гбайт
Продолжительность : 2 ч. 11 м.
Общий поток : 25,7 Мбит/сек
Дата кодирования : UTC 2018-04-20 13:43:08
Программа кодирования : mkvmerge v3.4.0 ('Rapunzel') сборка от May 15 2010 09:38:20
Библиотека кодирования : libebml v0.8.0 + libmatroska v0.9.0

Видео
Идентификатор : 1
Формат : AVC
Формат/Информация : Advanced Video Codec
Профиль формата : High@L5.0
Параметр CABAC формата : Да
Параметр ReFrames формата : 4 кадра
Идентификатор кодека : V_MPEG4/ISO/AVC
Продолжительность : 2 ч. 11 м.
Битрейт : 23,5 Мбит/сек
Ширина : 1920 пикселей
Высота : 2160 пикселей
Соотношение сторон : 0,889
Частота кадров : 23,976 кадра/сек
Цветовое пространство : YUV
Субдискретизация насыщенности : 4:2:0
Битовая глубина : 8 бит
Тип развёртки : Прогрессивная
Бит/(Пиксели*Кадры) : 0.237
Размер потока : 21,6 Гбайт (91%)
Заголовок : Rip by SeRoGa00
Библиотека кодирования : x264 core 155 r2901 7d0ff22
Настройки программы : cabac=1 / ref=4 / deblock=1:-3:-3 / analyse=0x3:0x113 / me=umh / subme=10 / psy=1 / psy_rd=1.00:0.15 / mixed_ref=1 / me_range=24 / chroma_me=1 / trellis=2 / 8x8dct=1 / cqm=0 / deadzone=21,11 / fast_pskip=1 / chroma_qp_offset=-3 / threads=12 / lookahead_threads=6 / sliced_threads=0 / nr=0 / decimate=0 / interlaced=0 / bluray_compat=0 / constrained_intra=0 / bframes=10 / b_pyramid=2 / b_adapt=2 / b_bias=0 / direct=3 / weightb=1 / open_gop=0 / weightp=2 / keyint=250 / keyint_min=23 / scenecut=40 / intra_refresh=0 / rc_lookahead=60 / rc=crf / mbtree=1 / crf=16.0 / qcomp=0.60 / qpmin=10 / qpmax=69 / qpstep=4 / vbv_maxrate=40000 / vbv_bufsize=40000 / crf_max=0.0 / nal_hrd=none / filler=0 / ip_ratio=1.40 / aq=1:1.00
Язык : English
Default : Нет
Forced : Нет

Аудио #1
Идентификатор : 2
Формат : AC-3
Формат/Информация : Audio Coding 3
Расширение режима : CM (complete main)
Параметр Endianness формата : Big
Идентификатор кодека : A_AC3
Продолжительность : 2 ч. 11 м.
Вид битрейта : Постоянный
Битрейт : 192 Кбит/сек
Каналы : 2 канала
Расположение каналов : Front: L R
Частота : 48,0 КГц
Битовая глубина : 16 бит
Метод сжатия : С потерями
Размер потока : 181 Мбайт (1%)
Язык : Russian
Default : Да
Forced : Нет

Аудио #2
Идентификатор : 3
Формат : DTS
Формат/Информация : Digital Theater Systems
Идентификатор кодека : A_DTS
Продолжительность : 2 ч. 11 м.
Вид битрейта : Постоянный
Битрейт : 1510 Кбит/сек
Каналы : 6 каналов
Расположение каналов : Front: L C R, Side: L R, LFE
Частота : 48,0 КГц
Битовая глубина : 24 бит
Метод сжатия : С потерями
Размер потока : 1,39 Гбайт (6%)
Язык : Russian
Default : Нет
Forced : Нет
скриншот  

скриншот  

скриншот  

скриншот  

скриншот  

скриншот  
pb.wtf



Скачать Раскрашенная кожа 2 в 3Д через торрент https://b.radikal.ru/b07/1804/cd/7fe1a3f5396a.png Скачать фильм Раскрашенная кожа 2 в 3Д через торрент бесплантно в хорошем качестве Описание: Согласно древней легенде,чтобы стать смертным, демон должен прожить на земле несколько сот лет; но и этого недостаточно, чтобы ... 10 10 1
Info! Золотая раздача, скачанное не засчитывается.
Торрент: Зарегистрирован [2018-04-20 15:32] · скачан: 5 раз
Статус: √ проверено
Размер: 23.66 GB
Как cкачать? Как скачать Раскрашенная кожа 2 в 3Д через торрент | UTorrent

28-11-2019 20:33  

Отключить всю рекламу на сайте

    Дорогой пользователь! Огромная просьба, поблагодарите релизера, оцените раздачу и оставьте свои комментарий, если Вы скачали Раскрашенная кожа 2 в 3Д через торрент бесплатно! Внесите свою лепту в развитие PiratBit!
    Комментировать посты могут только пользователи прошедшие не сложную регистрацию
    Показать сообщения:    

    Раскрашенная кожа 2 в 3Д через торрент
    Скачать бесплатно Раскрашенная кожа 2 в 3Д
    Раскрашенная кожа 2 в 3Д скачать торрент
    Раскрашенная кожа 2 в 3Д смотреть онлайн
    Cкачать фильм Раскрашенная кожа 2 в 3Д бесплатно
    Раскрашенная кожа 2 в 3Д скачать торрент в хорошем качестве
    Раскрашенная кожа 2 в 3Д смотреть онлайн бесплатно в хорошем качестве


    Вы не можете начинать темы
    Вы не можете отвечать на сообщения
    Вы не можете редактировать свои сообщения
    Вы не можете удалять свои сообщения
    Вы не можете голосовать в опросах
    Вы не можете прикреплять файлы к сообщениям
    Вы можете скачивать файлы