Ссылка на приватное зеркало нашего сайта всего за 1$. Внимание количество ограничено!!!

2 сезон

iTunes

1 сезон

1

2 сезон

2 сезон

iTunes

1 сезон

RePack

30

Ultimate

ВАЖНО

ИГРА 18+

pack

RePack

MK11
pack

Забери бонус

RePack

jed

!!Акция!!

Alien_Rage

RePack

fifa19

RePack

Assassins Creed: Odyssey

RePack

NEED FOR SPEED™ PAYBACK

4 сезон

9 сезон

Бесстыжие 9 сезон

Все сериалы

все сериалы на PB.wtf

RePack

FAR CRY 5
  

Аннигиляция / Annihilation (Алекс Гарленд / Alex Garland) [2018, ужасы, фантастика, фэнтези, WEB-DL 1080p] MVO [Jaskier, NewStudio, HDrezka Studio] + AVO [Яроцкий] pb.wtf

Аннигиляция через торрент pb.wtf

Размер: 4.54 GB | Добавлен: 2 года 7 мес. назад | Торрент скачан:883 раза
Скачать  

20-04-2018 17:48 Аннигиляция Скачать торрент  

Аннигиляция
Annihilation

«Fear What's Inside»


Страна: Великобритания, США
Жанр: ужасы, фантастика, фэнтези, триллер, драма, детектив, приключения

Год выпуска: 2018
Продолжительность: 01:55:29

Перевод #1: Профессиональный (многоголосый, закадровый) [Jaskier]
Перевод #2: Профессиональный (многоголосый, закадровый) [NewStudio]
Перевод #3: Профессиональный (многоголосый, закадровый) [HDRezka studio]
Перевод #4: Авторский (одноголосый, закадровый) [Яроцкий]
Субтитры: Русский, английский, арабский, датский, немецкий, греческий, испанский, финский, французский, иврит, хинди, итальянский, японский, корейский, норвежский, голландский, польский, португальский, бразильский, румынский, шведский, тайский, турецкий, китайский.
Оригинальная аудиодорожка: английский

Режиссер: Алекс Гарленд / Alex Garland

В ролях: Натали Портман, Дженнифер Джейсон Ли, Оскар Айзек, Тесса Томпсон, Джина Родригез, Тува Новотны, Бенедикт Вонг, Дэвид Гяси, Соноя Мидзуно, Джон Шваб, Сэмми Хейман, Джош Дэнфорд

Описание:
На Землю прилетает маленький метеорит и становится причиной больших перемен. Он врезается в одиноко стоящий маяк, что загадочным образом меняет территорию вокруг.
Профессор биологии Лина уже год страдает от потери мужа-военного. Кейн отправился на очередное секретное задание, но так и не вернулся — жив ли, погиб — женщина не знает, пока однажды дезориентированный и слегка бледный супруг внезапно не появляется на пороге их спальни. Радость длится недолго — у мужчины начинаются судороги и множественные кровотечения, а по дороге в больницу машину скорой помощи тормозят военные. Лина приходит в себя на секретной базе рядом с той самой загадочной зоной, куда уже отправлялись многочисленные экспедиции, но вернулся, оказывается, только один человек — её Кейн.



Релиз:

Автор релиза: stalkerok
За дорогу HDRezka studio спасибо WetY, за дорогу Jaskier спасибо karta78, за дорогу NewStudio (удаление рекламы) спасибо Wanterlude, за дорогу Яроцкого спасибо Ведро Укропа.
Русские субтитры студии Focs.
За основу взято видео Annihilation.2018.REPACK.1080p.NF.WEB-DL.DD5.1.x264-NTG

Сэмпл

Качество видео: WEB-DL 1080p [NTG]
Формат видео: MKV
Видео кодек: AVC
Аудио кодек: AC3
Видео: AVC, 3650 Кбит/сек, 1920x1080 (16:9), 23,976 кадр/сек
Аудио №1: AC3, 384 Кбит/сек, 48 КГц, 5.1 - русский | Jaskier
Аудио №2: AC3, 384 Кбит/сек, 48 КГц, 5.1 - русский | NewStudio
Аудио №3: AC3, 384 Кбит/сек, 48 КГц, 5.1 - русский | HDrezka Studio
Аудио №4: AC3, 448 Кбит/сек, 48 КГц, 5.1 - русский | Яроцкий
Аудио №5: AC3, 384 Кбит/сек, 48 КГц, 5.1 - английский

Общее
Уникальный идентификатор : 240951097366366382379177812224977300215 (0xB5457E4C84D32853AE544A39EC4A6AF7)
Полное имя : O:\!Rips\Annihilation (2018)\NEW\Annihilation.2018.1080p.WEB-DL.4xRus.Eng.stalkerok.new-team.mkv
Формат : Matroska
Версия формата : Version 4 / Version 2
Размер файла : 4,54 Гбайт
Продолжительность : 1 ч. 55 м.
Режим общего битрейта : Переменный
Общий поток : 5627 Кбит/сек
Название фильма : Annihilation (2018) - release by stalkerok
Дата кодирования : UTC 2018-04-20 16:39:02
Программа кодирования : mkvmerge v8.6.1 ('Flying') 64bit
Библиотека кодирования : libebml v1.3.3 + libmatroska v1.4.4

Видео
Идентификатор : 1
Формат : AVC
Формат/Информация : Advanced Video Codec
Профиль формата : Main@L4
Параметр CABAC формата : Да
Параметр ReFrames формата : 3 кадра
Идентификатор кодека : V_MPEG4/ISO/AVC
Продолжительность : 1 ч. 55 м.
Вид битрейта : Переменный
Битрейт : 3650 Кбит/сек
Максимальный битрейт : 5475 Кбит/сек
Ширина : 1920 пикселей
Высота : 1080 пикселей
Соотношение сторон : 16:9
Режим частоты кадров : Постоянный
Частота кадров : 23,976 (24000/1001) кадра/сек
Цветовое пространство : YUV
Субдискретизация насыщенности : 4:2:0
Битовая глубина : 8 бит
Тип развёртки : Прогрессивная
Бит/(Пиксели*Кадры) : 0.073
Размер потока : 2,93 Гбайт (65%)
Заголовок : Annihilation (2018) - release by stalkerok
Библиотека кодирования : x264 core 148 r2715 7e75228
Настройки программы : cabac=1 / ref=3 / deblock=1:0:0 / analyse=0x1:0x111 / me=umh / subme=10 / psy=1 / psy_rd=1.00:0.00 / mixed_ref=1 / me_range=24 / chroma_me=1 / trellis=2 / 8x8dct=0 / cqm=0 / deadzone=21,11 / fast_pskip=1 / chroma_qp_offset=-2 / threads=8 / lookahead_threads=1 / sliced_threads=0 / nr=0 / decimate=1 / interlaced=0 / bluray_compat=0 / stitchable=1 / constrained_intra=0 / bframes=2 / b_pyramid=0 / b_adapt=2 / b_bias=0 / direct=3 / weightb=1 / open_gop=0 / weightp=2 / keyint=48 / keyint_min=25 / scenecut=0 / intra_refresh=0 / rc_lookahead=48 / rc=2pass / mbtree=1 / bitrate=3650 / ratetol=1.0 / qcomp=0.50 / qpmin=6 / qpmax=51 / qpstep=4 / cplxblur=20.0 / qblur=0.5 / vbv_maxrate=5475 / vbv_bufsize=7300 / nal_hrd=vbr / filler=0 / ip_ratio=1.40 / aq=1:1.00
Default : Да
Forced : Нет

Аудио #1
Идентификатор : 2
Формат : AC-3
Формат/Информация : Audio Coding 3
Расширение режима : CM (complete main)
Параметр Endianness формата : Big
Идентификатор кодека : A_AC3
Продолжительность : 1 ч. 55 м.
Вид битрейта : Постоянный
Битрейт : 384 Кбит/сек
Каналы : 6 каналов
Расположение каналов : Front: L C R, Side: L R, LFE
Частота : 48,0 КГц
Частота кадров : 31,250 кадров/сек (1536 spf)
Метод сжатия : С потерями
Размер потока : 317 Мбайт (7%)
Заголовок : Jaskier
Язык : Russian
Default : Да
Forced : Нет

Аудио #2
Идентификатор : 3
Формат : AC-3
Формат/Информация : Audio Coding 3
Расширение режима : CM (complete main)
Параметр Endianness формата : Big
Идентификатор кодека : A_AC3
Продолжительность : 1 ч. 55 м.
Вид битрейта : Постоянный
Битрейт : 384 Кбит/сек
Каналы : 6 каналов
Расположение каналов : Front: L C R, Side: L R, LFE
Частота : 48,0 КГц
Частота кадров : 31,250 кадров/сек (1536 spf)
Метод сжатия : С потерями
Размер потока : 317 Мбайт (7%)
Заголовок : NewStudio
Язык : Russian
Default : Нет
Forced : Нет

Аудио #3
Идентификатор : 4
Формат : AC-3
Формат/Информация : Audio Coding 3
Расширение режима : CM (complete main)
Параметр Endianness формата : Big
Идентификатор кодека : A_AC3
Продолжительность : 1 ч. 55 м.
Вид битрейта : Постоянный
Битрейт : 384 Кбит/сек
Каналы : 6 каналов
Расположение каналов : Front: L C R, Side: L R, LFE
Частота : 48,0 КГц
Частота кадров : 31,250 кадров/сек (1536 spf)
Метод сжатия : С потерями
Размер потока : 317 Мбайт (7%)
Заголовок : HDRezka studio
Язык : Russian
Default : Нет
Forced : Нет

Аудио #4
Идентификатор : 5
Формат : AC-3
Формат/Информация : Audio Coding 3
Расширение режима : CM (complete main)
Параметр Endianness формата : Big
Идентификатор кодека : A_AC3
Продолжительность : 1 ч. 55 м.
Вид битрейта : Постоянный
Битрейт : 448 Кбит/сек
Каналы : 6 каналов
Расположение каналов : Front: L C R, Side: L R, LFE
Частота : 48,0 КГц
Частота кадров : 31,250 кадров/сек (1536 spf)
Метод сжатия : С потерями
Размер потока : 370 Мбайт (8%)
Заголовок : Яроцкий
Язык : Russian
Default : Нет
Forced : Нет

Аудио #5
Идентификатор : 6
Формат : AC-3
Формат/Информация : Audio Coding 3
Расширение режима : CM (complete main)
Параметр Endianness формата : Big
Идентификатор кодека : A_AC3
Продолжительность : 1 ч. 55 м.
Вид битрейта : Постоянный
Битрейт : 384 Кбит/сек
Каналы : 6 каналов
Расположение каналов : Front: L C R, Side: L R, LFE
Частота : 48,0 КГц
Частота кадров : 31,250 кадров/сек (1536 spf)
Метод сжатия : С потерями
Размер потока : 317 Мбайт (7%)
Язык : English
Default : Нет
Forced : Нет

Текст #1
Идентификатор : 7
Формат : UTF-8
Идентификатор кодека : S_TEXT/UTF8
Идентификатор кодека/Информация : UTF-8 Plain Text
Продолжительность : 1 ч. 46 м.
Битрейт : 59 бит/сек
Count of elements : 916
Размер потока : 46,6 Кбайт (0%)
Заголовок : FOCS
Язык : Russian
Default : Нет
Forced : Нет

Текст #2
Идентификатор : 8
Формат : UTF-8
Идентификатор кодека : S_TEXT/UTF8
Идентификатор кодека/Информация : UTF-8 Plain Text
Продолжительность : 1 ч. 46 м.
Битрейт : 34 бит/сек
Count of elements : 940
Размер потока : 27,1 Кбайт (0%)
Язык : English
Default : Нет
Forced : Нет

Текст #3
Идентификатор : 9
Формат : UTF-8
Идентификатор кодека : S_TEXT/UTF8
Идентификатор кодека/Информация : UTF-8 Plain Text
Продолжительность : 1 ч. 47 м.
Битрейт : 40 бит/сек
Count of elements : 1098
Размер потока : 32,2 Кбайт (0%)
Заголовок : SDH
Язык : English
Default : Нет
Forced : Нет

Текст #4
Идентификатор : 10
Формат : UTF-8
Идентификатор кодека : S_TEXT/UTF8
Идентификатор кодека/Информация : UTF-8 Plain Text
Продолжительность : 1 ч. 49 м.
Битрейт : 53 бит/сек
Count of elements : 924
Размер потока : 43,3 Кбайт (0%)
Язык : Arabic
Default : Нет
Forced : Нет

Текст #5
Идентификатор : 11
Формат : UTF-8
Идентификатор кодека : S_TEXT/UTF8
Идентификатор кодека/Информация : UTF-8 Plain Text
Продолжительность : 1 ч. 46 м.
Битрейт : 29 бит/сек
Count of elements : 879
Размер потока : 22,8 Кбайт (0%)
Язык : Danish
Default : Нет
Forced : Нет

Текст #6
Идентификатор : 12
Формат : UTF-8
Идентификатор кодека : S_TEXT/UTF8
Идентификатор кодека/Информация : UTF-8 Plain Text
Продолжительность : 1 ч. 49 м.
Битрейт : 30 бит/сек
Count of elements : 919
Размер потока : 24,8 Кбайт (0%)
Язык : German
Default : Нет
Forced : Нет

Текст #7
Идентификатор : 13
Формат : UTF-8
Идентификатор кодека : S_TEXT/UTF8
Идентификатор кодека/Информация : UTF-8 Plain Text
Продолжительность : 1 ч. 46 м.
Битрейт : 56 бит/сек
Count of elements : 914
Размер потока : 43,9 Кбайт (0%)
Язык : Greek
Default : Нет
Forced : Нет

Текст #8
Идентификатор : 14
Формат : UTF-8
Идентификатор кодека : S_TEXT/UTF8
Идентификатор кодека/Информация : UTF-8 Plain Text
Продолжительность : 1 ч. 46 м.
Битрейт : 30 бит/сек
Count of elements : 914
Размер потока : 23,5 Кбайт (0%)
Язык : Spanish
Default : Нет
Forced : Нет

Текст #9
Идентификатор : 15
Формат : UTF-8
Идентификатор кодека : S_TEXT/UTF8
Идентификатор кодека/Информация : UTF-8 Plain Text
Продолжительность : 1 ч. 49 м.
Битрейт : 29 бит/сек
Count of elements : 885
Размер потока : 23,8 Кбайт (0%)
Заголовок : European
Язык : Spanish
Default : Нет
Forced : Нет

Текст #10
Идентификатор : 16
Формат : UTF-8
Идентификатор кодека : S_TEXT/UTF8
Идентификатор кодека/Информация : UTF-8 Plain Text
Продолжительность : 1 ч. 46 м.
Битрейт : 26 бит/сек
Count of elements : 860
Размер потока : 20,5 Кбайт (0%)
Язык : Finnish
Default : Нет
Forced : Нет

Текст #11
Идентификатор : 17
Формат : UTF-8
Идентификатор кодека : S_TEXT/UTF8
Идентификатор кодека/Информация : UTF-8 Plain Text
Продолжительность : 1 ч. 46 м.
Битрейт : 30 бит/сек
Count of elements : 881
Размер потока : 24,1 Кбайт (0%)
Язык : French
Default : Нет
Forced : Нет

Текст #12
Идентификатор : 18
Формат : UTF-8
Идентификатор кодека : S_TEXT/UTF8
Идентификатор кодека/Информация : UTF-8 Plain Text
Продолжительность : 1 ч. 46 м.
Битрейт : 47 бит/сек
Count of elements : 918
Размер потока : 37,3 Кбайт (0%)
Язык : Hebrew
Default : Нет
Forced : Нет

Текст #13
Идентификатор : 19
Формат : UTF-8
Идентификатор кодека : S_TEXT/UTF8
Идентификатор кодека/Информация : UTF-8 Plain Text
Продолжительность : 1 ч. 46 м.
Битрейт : 81 бит/сек
Count of elements : 922
Размер потока : 63,7 Кбайт (0%)
Язык : Hindi
Default : Нет
Forced : Нет

Текст #14
Идентификатор : 20
Формат : UTF-8
Идентификатор кодека : S_TEXT/UTF8
Идентификатор кодека/Информация : UTF-8 Plain Text
Продолжительность : 1 ч. 47 м.
Битрейт : 29 бит/сек
Count of elements : 878
Размер потока : 23,2 Кбайт (0%)
Язык : Italian
Default : Нет
Forced : Нет

Текст #15
Идентификатор : 21
Формат : UTF-8
Идентификатор кодека : S_TEXT/UTF8
Идентификатор кодека/Информация : UTF-8 Plain Text
Продолжительность : 1 ч. 49 м.
Битрейт : 25 бит/сек
Count of elements : 979
Размер потока : 20,6 Кбайт (0%)
Язык : Japanese
Default : Нет
Forced : Нет

Текст #16
Идентификатор : 22
Формат : UTF-8
Идентификатор кодека : S_TEXT/UTF8
Идентификатор кодека/Информация : UTF-8 Plain Text
Продолжительность : 1 ч. 47 м.
Битрейт : 36 бит/сек
Count of elements : 923
Размер потока : 28,9 Кбайт (0%)
Язык : Korean
Default : Нет
Forced : Нет

Текст #17
Идентификатор : 23
Формат : UTF-8
Идентификатор кодека : S_TEXT/UTF8
Идентификатор кодека/Информация : UTF-8 Plain Text
Продолжительность : 1 ч. 46 м.
Битрейт : 30 бит/сек
Count of elements : 901
Размер потока : 23,7 Кбайт (0%)
Язык : Norwegian Bokmal
Default : Нет
Forced : Нет

Текст #18
Идентификатор : 24
Формат : UTF-8
Идентификатор кодека : S_TEXT/UTF8
Идентификатор кодека/Информация : UTF-8 Plain Text
Продолжительность : 1 ч. 46 м.
Битрейт : 27 бит/сек
Count of elements : 785
Размер потока : 21,6 Кбайт (0%)
Язык : Dutch
Default : Нет
Forced : Нет

Текст #19
Идентификатор : 25
Формат : UTF-8
Идентификатор кодека : S_TEXT/UTF8
Идентификатор кодека/Информация : UTF-8 Plain Text
Продолжительность : 1 ч. 49 м.
Битрейт : 29 бит/сек
Count of elements : 920
Размер потока : 23,5 Кбайт (0%)
Язык : Polish
Default : Нет
Forced : Нет

Текст #20
Идентификатор : 26
Формат : UTF-8
Идентификатор кодека : S_TEXT/UTF8
Идентификатор кодека/Информация : UTF-8 Plain Text
Продолжительность : 1 ч. 46 м.
Битрейт : 30 бит/сек
Count of elements : 905
Размер потока : 24,1 Кбайт (0%)
Язык : Portuguese
Default : Нет
Forced : Нет

Текст #21
Идентификатор : 27
Формат : UTF-8
Идентификатор кодека : S_TEXT/UTF8
Идентификатор кодека/Информация : UTF-8 Plain Text
Продолжительность : 1 ч. 47 м.
Битрейт : 31 бит/сек
Count of elements : 893
Размер потока : 25,0 Кбайт (0%)
Заголовок : Brazilian
Язык : Portuguese
Default : Нет
Forced : Нет

Текст #22
Идентификатор : 28
Формат : UTF-8
Идентификатор кодека : S_TEXT/UTF8
Идентификатор кодека/Информация : UTF-8 Plain Text
Продолжительность : 1 ч. 46 м.
Битрейт : 32 бит/сек
Count of elements : 900
Размер потока : 25,2 Кбайт (0%)
Язык : Romanian
Default : Нет
Forced : Нет

Текст #23
Идентификатор : 29
Формат : UTF-8
Идентификатор кодека : S_TEXT/UTF8
Идентификатор кодека/Информация : UTF-8 Plain Text
Продолжительность : 1 ч. 46 м.
Битрейт : 29 бит/сек
Count of elements : 896
Размер потока : 23,1 Кбайт (0%)
Язык : Swedish
Default : Нет
Forced : Нет

Текст #24
Идентификатор : 30
Формат : UTF-8
Идентификатор кодека : S_TEXT/UTF8
Идентификатор кодека/Информация : UTF-8 Plain Text
Продолжительность : 1 ч. 46 м.
Битрейт : 79 бит/сек
Count of elements : 921
Размер потока : 62,3 Кбайт (0%)
Язык : Thai
Default : Нет
Forced : Нет

Текст #25
Идентификатор : 31
Формат : UTF-8
Идентификатор кодека : S_TEXT/UTF8
Идентификатор кодека/Информация : UTF-8 Plain Text
Продолжительность : 1 ч. 47 м.
Битрейт : 31 бит/сек
Count of elements : 927
Размер потока : 24,5 Кбайт (0%)
Язык : Turkish
Default : Нет
Forced : Нет

Текст #26
Идентификатор : 32
Формат : UTF-8
Идентификатор кодека : S_TEXT/UTF8
Идентификатор кодека/Информация : UTF-8 Plain Text
Продолжительность : 1 ч. 46 м.
Битрейт : 30 бит/сек
Count of elements : 922
Размер потока : 23,8 Кбайт (0%)
Заголовок : Simplified
Язык : Chinese
Default : Нет
Forced : Нет

Текст #27
Идентификатор : 33
Формат : UTF-8
Идентификатор кодека : S_TEXT/UTF8
Идентификатор кодека/Информация : UTF-8 Plain Text
Продолжительность : 1 ч. 47 м.
Битрейт : 28 бит/сек
Count of elements : 924
Размер потока : 22,3 Кбайт (0%)
Заголовок : Traditional
Язык : Chinese
Default : Нет
Forced : Нет
скриншот   скриншот   скриншот   скриншот   скриншот   скриншот  
pb.wtf



Скачать Аннигиляция через торрент http://i6.imageban.ru/out/2017/09/18/2ff75c0c358795c5946784cc1680714d.png Скачать фильм Аннигиляция через торрент бесплантно в хорошем качестве Описание:На Землю прилетает маленький метеорит и становится причиной больших перемен. Он врезается в одиноко стоящий маяк, что загадочным ... 9.2 10 10
Info! Золотая раздача, скачанное не засчитывается.
Торрент: Зарегистрирован [2018-04-20 17:48] · скачан: 883 раз
Статус: √ проверено
Размер: 4.54 GB
Как cкачать? Как скачать Аннигиляция через торрент | qTorrent

% Раздел Тема Автор DL S | L
Фильмы 2019-2020 [DVDrip, WEB-DLRip, HDrip] (DUB, MVO) [ 1.89 GB ] Дум: Аннигиляция / Doom: Annihilation [2019 BDRip-AVC] DUB - ExKinoRay Enigma2010 Скачать
3 | 0
Ultra HD (UHD: 2K, 4K, 8K) — видео сверхвысокой чёткости [ 46.73 GB ] Аннигиляция / Annihilation [2018 UHD BDRemux 2160p] [Dolby Vision TV] DUB + 2xMVO + 2xAVO sheker187 Скачать
3 | 0
Ultra HD (UHD: 2K, 4K, 8K) — видео сверхвысокой чёткости [ 63.86 GB ] Аннигиляция / Annihilation [2018 UHD BDRemux 2160p] [Dolby Vision] DUB + 2xMVO + 2xAVO sheker187 Скачать
1 | 0
# Фильмы (мультфильмы) cо спонсором показа (Новинки AVI/MKV) [ 4.9 GB ] Дум: Аннигиляция / Doom: Annihilation [2019 BDRip 720p] MVO [@MUZOBOZ@] bober100 Скачать
1 | 0
T Фильмы (мультфильмы) cо спонсором показа (Новинки AVI/MKV) [ 1.37 GB ] Дум: Аннигиляция / Doom: Annihilation [2019 HDRip] MVO [@MUZOBOZ@] bober100 Скачать
2 | 0
# Фильмы (мультфильмы) cо спонсором показа (Новинки AVI/MKV) [ 9.14 GB ] Дум: Аннигиляция / Doom: Annihilation [2019 BDRip 1080p] MVO [@MUZOBOZ@] bober100 Скачать
1 | 0
Фильмы 2018 [DVDrip, WEB-DLRip, HDrip] (DUB, MVO) [ 2.13 GB ] Аннигиляция / Annihilation [2018 BDRip] - Twi7ter Скачать
4 | 0

28-11-2019 20:33  

Отключить всю рекламу на сайте

    Дорогой пользователь! Огромная просьба, поблагодарите релизера, оцените раздачу и оставьте свои комментарий, если Вы скачали Аннигиляция через торрент бесплатно! Внесите свою лепту в развитие PiratBit!
    Комментировать посты могут только пользователи прошедшие не сложную регистрацию
    Показать сообщения:    

    Аннигиляция через торрент
    Скачать бесплатно Аннигиляция
    Аннигиляция скачать торрент
    Аннигиляция смотреть онлайн
    Cкачать фильм Аннигиляция бесплатно
    Аннигиляция скачать торрент в хорошем качестве
    Аннигиляция смотреть онлайн бесплатно в хорошем качестве


    Вы не можете начинать темы
    Вы не можете отвечать на сообщения
    Вы не можете редактировать свои сообщения
    Вы не можете удалять свои сообщения
    Вы не можете голосовать в опросах
    Вы не можете прикреплять файлы к сообщениям
    Вы можете скачивать файлы