2 сезон

iTunes

MVO

1

2 сезон

iTunes

iTunes

1 сезон

RePack

30

Новинка

ВАЖНО

ИГРА 18+

pack

RePack

MK11
pack

Легкие деньги

RePack

jed

RePack

fifa19

RePack

RDR2

RePack

NEED FOR SPEED™ PAYBACK

4 сезон

9 сезон

Бесстыжие 9 сезон

Все сериалы

все сериалы на PB.wtf

RePack

FAR CRY 5

Anonymous, доброй ночи, мы не успеваем собрать деньги на оплату серверов за декабрь и январь, помогите нам пожалуйста в это трудное время. В качестве благодарности мы отключим Вам всю рекламу на сайте (укажите свой ник в строку Ваше имя)!

×
  
Magnet ссылка

Погружение / Submergence (Вим Вендерс) [2017, Триллер, драма, мелодрама, WEB-DLRip-AVC] DUB [iTunes] pb.wtf

Погружение через торрент pb.wtf

Размер: 2.38 GB | Добавлен: 2 года 8 мес. назад | Торрент скачан:273 раза
Скачать  

20-04-2018 19:22 Погружение Скачать торрент  

Погружение / Submergence
Год выпуска: 2017
Страна: Германия, Франция, Испания, США
Жанр: Триллер, драма, мелодрама
Продолжительность: 01:51:32
Перевод: Дублированный | iTunes
Субтитры: Английские

Режиссер: Вим Вендерс

rating

В ролях:

Джеймс МакЭвой, Алисия Викандер, Александр Сиддиг, Селин Джонс, Реда Катеб, Мохамед Хакимшади, Клементин Баэрт, Адама Барри, Жюльен Буаниш, Лоик Корбери

Описание:

Он - офицер разведки, она - ученый-океанолог. Ему предстояла смертельно опасная спецоперация в Сомали, ей - глубоководная экспедиция. И теперь, в минуту испытаний пред лицом смерти - в плену у боевиков, в батискафе на глубине океана - все, что у них есть, - это их любовь...

Качество: WEB-DLRip-AVC
Формат: MKV

Видео: 1024x552 (1.85:1), 24,000 fps, x264 ~2 446 kbps avg, 0.180 bit/pixel
Аудио#1: 48 kHz, AC3 Dolby Digital, 3/2 (L,C,R,l,r) + LFE ch, ~384.00 kbps avg | RUS (iTunes)
Аудио#2: 48 kHz, AC3 Dolby Digital, 2 (L,R) ch, ~224.00 kbps avg | ENG
скриншот   скриншот   скриншот   скриншот  

Общее
Уникальный идентификатор : 251761225547623834846989474763805240894 (0xBD6772C48F9071ACBAD79F1B5B8B2E3E)
Полное имя : E:OlLanDGroupSubmergence.2017.WEB-DLRip(AVC).OlLanDGroup.mkv
Формат : Matroska
Версия формата : Version 2
Размер файла : 2,38 Гбайт
Продолжительность : 1 ч. 51 м.
Общий поток : 3051 Кбит/сек
Название фильма : Submergence.2017 #TorpedoUK#
Дата кодирования : UTC 2018-04-20 13:55:07
Программа кодирования : mkvmerge v7.8.0 ('River Man') 32bit built on Apr 3 2015 12:11:22
Библиотека кодирования : libebml v1.3.1 + libmatroska v1.4.2

Видео
Идентификатор : 1
Формат : AVC
Формат/Информация : Advanced Video Codec
Профиль формата : High@L4.1
Параметр CABAC формата : Да
Параметр ReFrames формата : 10 кадров
Идентификатор кодека : V_MPEG4/ISO/AVC
Продолжительность : 1 ч. 51 м.
Битрейт : 2446 Кбит/сек
Ширина : 1024 пикселя
Высота : 552 пикселя
Соотношение сторон : 1,85:1
Режим частоты кадров : Постоянный
Частота кадров : 24,000 кадра/сек
Цветовое пространство : YUV
Субдискретизация насыщенности : 4:2:0
Битовая глубина : 8 бит
Тип развёртки : Прогрессивная
Бит/(Пиксели*Кадры) : 0.180
Размер потока : 1,86 Гбайт (78%)
Библиотека кодирования : x264 core 146 r2538 121396c
Настройки программы : cabac=1 / ref=10 / deblock=1:-2:-3 / analyse=0x3:0x133 / me=umh / subme=11 / psy=1 / psy_rd=0.95:0.07 / mixed_ref=1 / me_range=48 / chroma_me=1 / trellis=2 / 8x8dct=1 / cqm=0 / deadzone=21,11 / fast_pskip=1 / chroma_qp_offset=-3 / threads=6 / lookahead_threads=1 / sliced_threads=0 / nr=0 / decimate=1 / interlaced=0 / bluray_compat=0 / constrained_intra=0 / bframes=10 / b_pyramid=2 / b_adapt=2 / b_bias=0 / direct=3 / weightb=1 / open_gop=0 / weightp=2 / keyint=240 / keyint_min=24 / scenecut=40 / intra_refresh=0 / rc_lookahead=40 / rc=2pass / mbtree=0 / bitrate=2446 / ratetol=1.0 / qcomp=0.60 / qpmin=0 / qpmax=69 / qpstep=4 / cplxblur=20.0 / qblur=0.5 / vbv_maxrate=50000 / vbv_bufsize=62500 / nal_hrd=none / filler=0 / ip_ratio=1.40 / pb_ratio=1.30 / aq=1:1.00
Язык : English
Default : Да
Forced : Нет

Аудио #1
Идентификатор : 2
Формат : AC-3
Формат/Информация : Audio Coding 3
Расширение режима : CM (complete main)
Параметр Endianness формата : Big
Идентификатор кодека : A_AC3
Продолжительность : 1 ч. 51 м.
Вид битрейта : Постоянный
Битрейт : 384 Кбит/сек
Каналы : 6 каналов
Расположение каналов : Front: L C R, Side: L R, LFE
Частота : 48,0 КГц
Частота кадров : 31,250 кадров/сек (1536 spf)
Битовая глубина : 16 бит
Метод сжатия : С потерями
Размер потока : 306 Мбайт (13%)
Заголовок : iTunes
Язык : Russian
Default : Да
Forced : Да

Аудио #2
Идентификатор : 3
Формат : AC-3
Формат/Информация : Audio Coding 3
Расширение режима : CM (complete main)
Параметр Endianness формата : Big
Идентификатор кодека : A_AC3
Продолжительность : 1 ч. 51 м.
Вид битрейта : Постоянный
Битрейт : 224 Кбит/сек
Каналы : 2 канала
Расположение каналов : Front: L R
Частота : 48,0 КГц
Частота кадров : 31,250 кадров/сек (1536 spf)
Битовая глубина : 16 бит
Метод сжатия : С потерями
Размер потока : 179 Мбайт (7%)
Заголовок : Original
Язык : English
Default : Нет
Forced : Нет

Текст #1
Идентификатор : 4
Формат : UTF-8
Идентификатор кодека : S_TEXT/UTF8
Идентификатор кодека/Информация : UTF-8 Plain Text
Заголовок : Full
Язык : English
Default : Нет
Forced : Нет

Текст #2
Идентификатор : 5
Формат : UTF-8
Идентификатор кодека : S_TEXT/UTF8
Идентификатор кодека/Информация : UTF-8 Plain Text
Заголовок : SDH
Язык : English
Default : Нет
Forced : Нет

Меню
00:00:00.000 : en:Глава 1
00:06:21.375 : en:Глава 2
00:11:59.583 : en:Глава 3
00:18:30.541 : en:Глава 4
00:24:06.249 : en:Глава 5
00:29:33.790 : en:Глава 6
00:36:07.706 : en:Глава 7
00:43:21.789 : en:Глава 8
00:50:57.205 : en:Глава 9
00:56:45.163 : en:Глава 10
01:03:33.746 : en:Глава 11
01:10:18.537 : en:Глава 12
01:15:41.703 : en:Глава 13

pb.wtf



Скачать Погружение через торрент http://lostpix.com/img/2018-04/12/euyu0hq4j4rmzkn6wtv62lkli.jpg Скачать фильм Погружение через торрент бесплантно в хорошем качестве Описание: Он - офицер разведки, она - ученый-океанолог. Ему предстояла смертельно опасная спецоперация в Сомали, ей - глубоководная ... 10 10 4
Торрент: Зарегистрирован [2018-04-20 19:22] · скачан: 273 раз
Статус: √ проверено
Размер: 2.38 GB
Как cкачать? Как скачать Погружение через торрент | UTorrent

% Раздел Тема Автор DL S | L
Фильмы (Blu-ray, BD-Remux, HDDVD) [ 43.49 GB ] Погружение / Submergence [2017 Blu-ray 1080p] [Rus Transfer] DUB [] bober100 Скачать
1 | 0
Фильмы 2017 [DVDrip, WEB-DLRip, HDrip] (DUB, MVO) [ 1.46 GB ] Погружение / Submergence [2017 BDRip] DUB [ R5] bober100 Скачать
1 | 0
Фильмы (Blu-ray, BD-Remux, HDDVD) [ 19.21 GB ] Погружение / Submergence [2017 BD Remux 1080p] bober100 Скачать
1 | 0
Фильмы 2017 [DVDrip, WEB-DLRip, HDrip] (DUB, MVO) [ 1.46 GB ] Погружение / Submergence [2017 BDRip] - [] Twi7ter Скачать
1 | 0
Фильмы [HD 720p, 1080p] (Хороший звук DUB, MVO) [ 8.86 GB ] Погружение / Submergence [2017 BDRip 1080p] bober100 Скачать
1 | 0
Фильмы (WEB-DL 720p, 1080p) [ 4.15 GB ] Погружение / Submergence [2017 WEB-DL 1080p] killermax2013 Скачать
1 | 0
Фильмы (WEB-DL 720p, 1080p) [ 3.31 GB ] Погружение / Submergence [2017 WEB-DL 720p] bober100 Скачать
1 | 0

28-11-2019 20:33  

Отключить всю рекламу на сайте

    Дорогой пользователь! Огромная просьба, поблагодарите релизера, оцените раздачу и оставьте свои комментарий, если Вы скачали Погружение через торрент бесплатно! Внесите свою лепту в развитие PiratBit!
    Комментировать посты могут только пользователи прошедшие не сложную регистрацию
    Показать сообщения:    

    Погружение через торрент
    Скачать бесплатно Погружение
    Погружение скачать торрент
    Погружение смотреть онлайн
    Cкачать фильм Погружение бесплатно
    Погружение скачать торрент в хорошем качестве
    Погружение смотреть онлайн бесплатно в хорошем качестве


    Вы не можете начинать темы
    Вы не можете отвечать на сообщения
    Вы не можете редактировать свои сообщения
    Вы не можете удалять свои сообщения
    Вы не можете голосовать в опросах
    Вы не можете прикреплять файлы к сообщениям
    Вы можете скачивать файлы