Ссылка на приватное зеркало нашего сайта всего за 1$. Внимание количество ограничено!!!

2 сезон

iTunes

1 сезон

1

2 сезон

2 сезон

iTunes

1 сезон

RePack

30

Новинка

ВАЖНО

ИГРА 18+

pack

RePack

MK11
pack

Забери бонус

RePack

jed

!!Акция!!

Alien_Rage

RePack

fifa19

RePack

Assassins Creed: Odyssey

RePack

NEED FOR SPEED™ PAYBACK

4 сезон

9 сезон

Бесстыжие 9 сезон

Все сериалы

все сериалы на PB.wtf

RePack

FAR CRY 5
  

Древние / Первородные / The Originals / Сезон: 5 / Серии: 1-13 из 13 (Крис Грисмер, Брэд Тернер) [2018, Фантастика, драма, WEBRip 720p] MVO [Baibako] pb.wtf

Древние через торрент pb.wtf

Размер: 20.89 GB | Добавлен: 2 года 3 мес. назад | Торрент скачан:16 раз
Скачать  

21-04-2018 05:48 Древние Скачать торрент  



Информация о фильме

Название: Древние / Первородные
Оригинальное название: The Originals
Год выпуска: 2018
Страна: США
Жанр: Фантастика, драма
Продолжительность: ~ 00:43:00
Перевод: Профессиональный многоголосый |
Субтитры: отсутствуют

Режиссер: Крис Грисмер, Брэд Тернер

rating

В ролях:

Джозеф Морган, Дэниэл Гиллис, Чарльз Майкл Дэвис, Клер Холт, Фиби Тонкин, Даниэль Кэмпбелл, Каллард Харрис, Александра Фикен, Эка Дарвилл, Даниэлла Пинеда, Леа Пайпс и др.

Описание:

До того, как появились вампиры, миром правили Первородные. Спустя долгие годы Клаус Майклсон возвращается в родной Новый Орлеан, который он когда-то помог построить. Там он встречает своего старого друга и ученика Марселя. Последний навел в городе свои порядки и установил строгие правила на колдовство ведьм. Все это не касалось Клауса (который особо и не интересовался), пока однажды он не услышал, как бьется сердце его еще не рожденного ребенка. Появление наследника Первородного никак не укладывалось в новые порядки Марселя, поэтому теперь Клаусу предстоит сделать важнейший выбор в своей жизни.

Качество: WEBRip 720p
Формат: MKV

Видео: MPEG-4 AVC, ~ 4066 Кбит/с, 1280x720
Аудио#1: Русский (AC3, 6 ch, 640 Кбит/с)
Аудио#2: английский (AC3, 6 ch, 640 Кбит/с)


скриншот   скриншот   скриншот  

Общее
Уникальный идентификатор : 205601509751060851341081349712206413907 (0x9AAD69118D6DCEBB8BFB689C74B8C053)
Полное имя : D:\The.Originals.s05.HD720p.WEBRip.Rus.Eng.BaibaKo.tv\The.Originals.s05e01.HD720p.WEBRip.Rus.Eng.BaibaKo.tv.mkv
Формат : Matroska
Версия формата : Version 4 / Version 2
Размер файла : 1,60 Гбайт
Продолжительность : 42 м. 55 с.
Общий поток : 5348 Кбит/сек
Дата кодирования : UTC 2018-04-20 21:31:54
Программа кодирования : mkvmerge v9.3.1 ('Mask Machine') 64bit
Библиотека кодирования : libebml v1.3.4 + libmatroska v1.4.5

Видео
Идентификатор : 1
Формат : AVC
Формат/Информация : Advanced Video Codec
Профиль формата : High@L4.1
Параметр CABAC формата : Да
Параметр RefFrames формата : 4 кадра
Идентификатор кодека : V_MPEG4/ISO/AVC
Продолжительность : 42 м. 55 с.
Битрейт : 4066 Кбит/сек
Ширина : 1280 пикселей
Высота : 720 пикселей
Соотношение сторон : 16:9
Режим частоты кадров : Постоянный
Частота кадров : 23,976 (24000/1001) кадра/сек
Цветовое пространство : YUV
Субдискретизация насыщенности : 4:2:0
Битовая глубина : 8 бит
Тип развёртки : Прогрессивная
Бит/(Пиксели*Кадры) : 0.184
Размер потока : 1,22 Гбайт (76%)
Default : Да
Forced : Нет

Аудио #1
Идентификатор : 2
Формат : AC-3
Формат/Информация : Audio Coding 3
Расширение режима : CM (complete main)
Параметр Endianness формата : Big
Идентификатор кодека : A_AC3
Продолжительность : 42 м. 55 с.
Вид битрейта : Постоянный
Битрейт : 640 Кбит/сек
Каналы : 6 каналов
Расположение каналов : Front: L C R, Side: L R, LFE
Частота : 48,0 КГц
Частота кадров : 31,250 кадров/сек (1536 spf)
Метод сжатия : С потерями
Размер потока : 196 Мбайт (12%)
Язык : Russian
Default : Да
Forced : Нет

Аудио #2
Идентификатор : 3
Формат : AC-3
Формат/Информация : Audio Coding 3
Расширение режима : CM (complete main)
Параметр Endianness формата : Big
Идентификатор кодека : A_AC3
Продолжительность : 42 м. 55 с.
Вид битрейта : Постоянный
Битрейт : 640 Кбит/сек
Каналы : 6 каналов
Расположение каналов : Front: L C R, Side: L R, LFE
Частота : 48,0 КГц
Частота кадров : 31,250 кадров/сек (1536 spf)
Метод сжатия : С потерями
Размер потока : 196 Мбайт (12%)
Язык : English
Default : Нет
Forced : Нет

Внимание! Раздача ведётся путём добавления новых серий; при каждом добавлении создаётся новый торрент. Чтобы начать докачку новой серии, пользователям необходимо сделать следующее:
(1) остановить скачивание,
(2) удалить старый торрент у себя из клиента (старые серии удалять не надо),
(3) скачать новый торрент и запустить его у себя в клиенте вместо старого, при этом указать клиенту путь в старую папку куда и должно происходить скачивание новых серий.
Ваш клиент при этом должен произвести хеширование (проверку) старой папки (если не производит сам - помогите ему сделать это), и будет докачивать только те серии которых у вас ещё нет. Старые серии при этом не удаляются, а продолжают раздаваться!
Eсли вы уже удалили старые серии, то предотвратить повторную закачку старых серий можно, отжав галочку в соответствующих местах при запуске нового торрента. По возможности, желательно не удалять старые серии как можно дольше чтобы релизёр не столько продолжал раздавать старые серии, а смог сконцентрироваться на новых.
pb.wtf



Скачать Древние через торрент http://i89.fastpic.ru/big/2017/0319/d2/3dfb76a26ed0b5306dcda229d92570d2.jpg Скачать фильм Древние через торрент бесплантно в хорошем качестве Описание: До того, как появились вампиры, миром правили Первородные. Спустя долгие годы Клаус Майклсон возвращается в родной Новый Орлеан, ... 8.6 10 5
Info! Золотая раздача, скачанное не засчитывается.
Торрент: Зарегистрирован [2018-08-03 17:25] · скачан: 16 раз
Статус: √ проверено
Размер: 20.89 GB
Как cкачать? Как скачать Древние через торрент | qTorrent

% Раздел Тема Автор DL S | L
Зарубежные сериалы [ 7.38 GB ] Древние / Первородные / The Originals / Сезон: 5 / Серии: 1-13 из 13 [2018 WEBRip] MVO [Baibako] bober100 Скачать
1 | 0
Зарубежные сериалы [ 35.62 GB ] Древние / Первородные / The Originals / Сезон: 5 / Серии: 1-13 из 13 [2018 WEB-DL 1080p] MVO [LostFilm] bober100 Скачать
1 | 0
Зарубежные сериалы [ 36.77 GB ] Древние / Первородные / The Originals / Сезон: 5 / Серии: 1-13 из 13 [2018 WEBRip 1080p] MVO [Baibako] bober100 Скачать
1 | 0


Последний раз редактировалось: bober100 (2018-08-03 17:25), всего редактировалось 8 раз(а)

28-11-2019 20:33  

Отключить всю рекламу на сайте

22-04-2018 08:04 Древние Скачать торрент  

До того, как появились вампиры, миром правили Первородные... что-то мне подсказывает не было еще нового орлеанаpb.wtf



    Дорогой пользователь! Огромная просьба, поблагодарите релизера, оцените раздачу и оставьте свои комментарий, если Вы скачали Древние через торрент бесплатно! Внесите свою лепту в развитие PiratBit!
    Комментировать посты могут только пользователи прошедшие не сложную регистрацию
    Показать сообщения:    

    Древние через торрент
    Скачать бесплатно Древние
    Древние скачать торрент
    Древние смотреть онлайн
    Cкачать фильм Древние бесплатно
    Древние скачать торрент в хорошем качестве
    Древние смотреть онлайн бесплатно в хорошем качестве


    Вы не можете начинать темы
    Вы не можете отвечать на сообщения
    Вы не можете редактировать свои сообщения
    Вы не можете удалять свои сообщения
    Вы не можете голосовать в опросах
    Вы не можете прикреплять файлы к сообщениям
    Вы можете скачивать файлы