новый адрес пиратбит piratbit
Мега распродажа FORZA HORIZON 4 ULTIMATE+ВСЕ DLC+ОНЛАЙН всего за 499р. 349 руб. (супер цена). Внимание количество ограничено!!!

iTunes

1+1

iTunes

мы

iTunes

1

iTunes

Чернобыль

iTunes

Ральф против интернета

Лицензия

ПШазам

Лицензия

Игра престолов

Лицензия

30
pack

ВАЖНО

!!Акция!!

Alien_RageХит недели

RePack

Resident Evil 21

ИГРА 18+

pack

RePack

Metro:Exodus

!!Акция!!

Alien_Rage

RePack

fifa19

RePack

Assassins Creed: Odyssey

RePack

NEED FOR SPEED™ PAYBACK

3 сезон

9 сезон

Бесстыжие 9 сезон

Все сериалы

все сериалы на PB.wtf

RePack

FAR CRY 5
Ребята, катастрофически не хватает 1900р. для оплаты серверов за Октябрь (всвязи с блокировками трафик упал в 3 раза), 1-2р., выручайте.
  

Бессонная ночь (Исидор Анненский) [1960, СССР, драма, SATRip от AVP Studio] pb.wtf

Бессонная ночь через торрент pb.wtf

Размер: 1.09 GB | Добавлен: 1 год 6 мес. назад | Торрент скачан:16 раз
Скачать  

21-04-2018 08:36 Бессонная ночь Скачать торрент  

Бессонная ночь
Страна: СССР
Производство: Киностудия им. Горького

Жанр: драма
Год выпуска: 1960
Продолжительность: 01:26:09

Перевод: Не требуется
Cубтитры: нет
Оригинальная аудиодорожка: русский

Режиссер: Исидор Анненский

В ролях:
Юрий Соломин, Евгений Самойлов, Людмила Чернышёва, Джемма Осмоловская, Маргарита Володина, Александр Граве, Луиза Кошукова, Геннадий Карнович-Валуа, Алексей Грибов, Андрей Тутышкин, Иван Любезнов, Юрий Медведев, Инна Выходцева, Лариса Нечаева, Леонид Чубаров, Вадим Захарченко, Олег Туманов...
Об актёрах подробней

Описание:
По мотивам повести Н.Дементьева "Мои дороги".
Молодому инженеру Павлу Каурову(Юрий Соломин) поручают руководство кранами в порту далекого города Сибирска. Вслед за ним в Сибирск едет его невеста Нина (Маргарита Володина). У Павла начинаются неприятности: личные проблемы мешают ему выполнить ответственное задание, и происходит серьезная авария. Теперь молодому инженеру предстоит восстанавливать свою репутацию.

Исходник: DVB
Качество видео: SATRip
Формат видео: AVI

Видео: 688x512 (4:3), 25,000 кадров/сек, XviD ~ 1608 kbps avg, 0.183 bit/pixel
Аудио: 48 kHz, Dolby Digital AC3 2.0, 192 kbps

Раздача от:
Общее
Полное имя : Bessonnaya.noch.1960.SATRip_[New-team]_by_AVP_Studio.avi
Формат : AVI
Формат/Информация : Audio Video Interleave
Размер файла : 1,09 Гбайт
Продолжительность : 1 ч. 26 м.
Общий поток : 1810 Кбит/сек
Программа кодирования : VirtualDubMod 1.5.10.3 | www.virtualdub-fr.org || (build 2550/release)
Библиотека кодирования : VirtualDubMod build 2550/release

Видео
Идентификатор : 0
Формат : MPEG-4 Visual
Профиль формата : Advanced Simple@L5
Настройки формата : BVOP1 / Custom Matrix
Параметр BVOP формата : 1
Параметр QPel формата : Нет
Параметр GMC формата : Без точки перехода
Параметр матрицы формата : Выборочная
Идентификатор кодека : XVID
Идентификатор кодека/Подсказка : XviD
Продолжительность : 1 ч. 26 м.
Битрейт : 1608 Кбит/сек
Ширина : 688 пикселей
Высота : 512 пикселей
Соотношение сторон : 4:3
Частота кадров : 25,000 кадров/сек
Цветовое пространство : YUV
Субдискретизация насыщенности : 4:2:0
Битовая глубина : 8 бит
Тип развёртки : Прогрессивная
Метод сжатия : С потерями
Бит/(Пиксели*Кадры) : 0.183
Размер потока : 991 Мбайт (89%)
Библиотека кодирования : XviD 73

Аудио
Идентификатор : 1
Формат : AC-3
Формат/Информация : Audio Coding 3
Идентификатор кодека : 2000
Продолжительность : 1 ч. 26 м.
Вид битрейта : Постоянный
Битрейт : 192 Кбит/сек
Каналы : 2 канала
Расположение каналов : Front: L R
Частота : 48,0 КГц
Частота кадров : 31,250 кадров/сек (1536 SPF)
Битовая глубина : 16 бит
Метод сжатия : С потерями
Размер потока : 118 Мбайт (11%)
Выравнивание : Разделение по промежуткам
Продолжительность промежутка : 40 мс. (1,00 видеокадр)
Время предзагрузки промежутка : 500 мс
pb.wtf



Скачать Бессонная ночь через торрент http://i6.imageban.ru/out/2018/04/21/3b9cd63785f227002559e1e24ac29084.png Скачать фильм Бессонная ночь через торрент бесплантно в хорошем качестве Описание:По мотивам повести Н.Дементьева "Мои дороги".Молодому инженеру Павлу Каурову(Юрий Соломин) поручают руководство кранами в порту ... 5 10 1
Info! Золотая раздача, скачанное не засчитывается.
Торрент: Зарегистрирован [2018-04-21 08:36] · скачан: 16 раз
Статус: √ проверено
Размер: 1.09 GB
Как cкачать? Как скачать Бессонная ночь через торрент | qTorrent

% Раздел Тема Автор DL S | L
Кино СССР [ 1.09 GB ] Бессонная ночь [1960 СССР SATRip-AVC от AVP Studio] AVP Studio Скачать
1 | 0
T Фильмы 2017 [DVDrip, WEB-DLRip, HDrip] (DUB, MVO) [ 1.46 GB ] Бессонная ночь / Sleepless [2017 BDRip] MVO [Paradox & Omskbird records] Twi7ter Скачать
1 | 0
T Фильмы 2017 [DVDrip, WEB-DLRip, HDrip] (DUB, MVO) [ 1.85 GB ] Бессонная ночь / Sleepless [2017 HDRip-AVC] [MVO] Paradox&Omskbird Records [VO] - ExKinoRay Enigma2010 Скачать
1 | 0
T Фильмы [HD 720p, 1080p] (Хороший звук DUB, MVO) [ 4.32 GB ] Бессонная ночь / Sleepless [2017 BDRip 720p] [MVO] Paradox & Omskbird records SEVMASH Скачать
1 | 0
T Релизы по Парсеру [Игры, Сериалы и Фильмы и другое...] [ 1.38 GB ] Бессонная ночь / Sleepless WEB-DLRip Любительский - BadBajo Ворон Скачать
1 | 0
Фильмы 2011 [ 1.45 GB ] Бессонная ночь / Nuit blanche [2011 HDRip MVO + оригинал] markfiter Скачать
1 | 0


>> Регистрируемся здесь <<






Отзывы и комментарии о схеме читаем и пишем здесь: ---> Отзывы и комментарии о схеме

Новые благодарочки в телеграм довольных пользователей:
скриншот   скриншот   скриншот   скриншот   скриншот
    Дорогой пользователь! Огромная просьба, поблагодарите релизера, оцените раздачу и оставьте свои комментарий, если Вы скачали Бессонная ночь через торрент бесплатно! Внесите свою лепту в развитие PiratBit!
    Комментировать посты могут только пользователи прошедшие не сложную регистрацию
    Показать сообщения:    

    Бессонная ночь через торрент
    Скачать бесплатно Бессонная ночь
    Бессонная ночь скачать торрент
    Бессонная ночь смотреть онлайн
    Cкачать фильм Бессонная ночь бесплатно
    Бессонная ночь скачать торрент в хорошем качестве
    Бессонная ночь смотреть онлайн бесплатно в хорошем качестве


    Вы не можете начинать темы
    Вы не можете отвечать на сообщения
    Вы не можете редактировать свои сообщения
    Вы не можете удалять свои сообщения
    Вы не можете голосовать в опросах
    Вы не можете прикреплять файлы к сообщениям
    Вы можете скачивать файлы