Ссылка на приватное зеркало нашего сайта всего за 1$. Внимание количество ограничено!!!

2 сезон

iTunes

1 сезон

1

iTunes

iTunes

iTunes

1 сезон

RePack

30

ИГРА 18+

pack

ВАЖНО

!!Акция!!

Alien_RageХит недели

RePack

MK11
pack

Забери бонус

RePack

jed

!!Акция!!

Alien_Rage

RePack

fifa19

RePack

Assassins Creed: Odyssey

RePack

NEED FOR SPEED™ PAYBACK

4 сезон

9 сезон

Бесстыжие 9 сезон

Все сериалы

все сериалы на PB.wtf

RePack

FAR CRY 5
  

Огненный ангел\Серия 1-4 из 4\ (Ольга Мотина) [2018 г., Психологический триллер, SATRip] pb.wtf

Огненный ангел\Серия 1-4 из 4\ через торрент pb.wtf

Размер: 2.34 GB | Добавлен: 2 года 5 мес. назад | Торрент скачан:128 раз
Скачать  

21-04-2018 10:42 Огненный ангел\Серия 1-4 из 4\ Скачать торрент  

Огненный ангел\Серия 1-4 из 4\
Год выпуска: 2018
Страна: Россия
Жанр: Психологический триллер
Продолжительность: 4 х 00:46:00
Субтитры: Нет

Режиссер: Ольга Мотина



В ролях: Полина Филоненко, Алёна Савастова, Степан Бекетов, Кирилл Запорожский, Евгений Терских, Дмитрий Поднозов, Оксана Базилевич, Анастасия Шалыгина, Антон Чернов

Описание: После аварии 11 лет назад Ева Заринская потеряла память. О своем прошлом она знает только по рассказам мужа Дмитрия. Проведя много лет заграницей, супруги возвращаются на родину. С Евой начинают происходить непонятные вещи: снятся странные сны, в памяти всплывают необъяснимые воспоминания, в которых ее преследует образ маленькой дочери. Только, по словам Дмитрия, у Евы никогда не было детей. Но можно ли ему верить? Она все больше сомневается в его словах, мало того, не понимает, кто на самом деле этот человек, с которым живет столько лет. Отчаянно пытаясь вспомнить детали своей прошлого, Ева приступает к расследованию...

Качество: SATRip
Формат: AVI
Видео кодек: XviD
Аудио кодек: AC3
Видео: XvD, ~ 1699 Кбит/с, 720x400
Аудио#1: AC3, 2 ch, 192 Кбит/с
скриншот   скриншот   скриншот   скриншот  

General
Complete name : H:\релизы.торрентфайл\Огненный ангел.2018.SATRip.by.Nicodem.Files-x\01.Огненный ангел.2018.SATRip.by.Nicodem.Files-x.avi
Format : AVI
Format/Info : Audio Video Interleave
File size : 600 MiB
Duration : 44mn 9s
Overall bit rate : 1 901 Kbps
Writing application : VirtualDubMod 1.5.10.3 | www.virtualdub-fr.org || (build 2550/release)
Writing library : VirtualDubMod build 2550/release

Video
ID : 0
Format : MPEG-4 Visual
Format profile : Advanced Simple@L5
Format settings, BVOP : 1
Format settings, QPel : Yes
Format settings, GMC : No warppoints
Format settings, Matrix : Custom
Codec ID : XVID
Codec ID/Hint : XviD
Duration : 44mn 9s
Bit rate : 1 699 Kbps
Width : 720 pixels
Height : 400 pixels
Display aspect ratio : 16:9
Frame rate : 25.000 fps
Color space : YUV
Chroma subsampling : 4:2:0
Bit depth : 8 bits
Scan type : Progressive
Compression mode : Lossy
Bits/(Pixel*Frame) : 0.236
Stream size : 537 MiB (89%)
Writing library : XviD 73

Audio
ID : 1
Format : AC-3
Format/Info : Audio Coding 3
Mode extension : CM (complete main)
Format settings, Endianness : Big
Codec ID : 2000
Duration : 44mn 9s
Bit rate mode : Constant
Bit rate : 192 Kbps
Channel(s) : 2 channels
Channel positions : Front: L R
Sampling rate : 48.0 KHz
Bit depth : 16 bits
Compression mode : Lossy
Stream size : 60.6 MiB (10%)
Alignment : Split accross interleaves
Interleave, duration : 40 ms (1.00 video frame)
Interleave, preload duration : 500 ms

Внимание! Раздача ведётся путём добавления новых серий; при каждом добавлении создётся новый торрент. Чтобы начать докачку новой серии, пользователям необходимо сделать следующее:
  • Остановить скачивание,
  • Удалить старый торрент у себя из клиента (старые серии удалять не надо),
  • Скачать новый торрент и запустить его у себя в клиенте вместо старого, при этом указать клиенту путь в старую папку куда и должно происходить скачивание новых серий.
Ваш клиент при этом должен произвести хеширование (проверку) старой папки (если не производит сам - помогите ему сделать это), и будет докачивать только те серии которых у вас ещё нет. Старые серии при этом не удаляются, а продолжают раздаваться!

Eсли вы уже удалили старые серии, то предотвратить повторную закачку старых серий можно, отжав галочку в соответсвующих местах при запуске нового торрента. По возможности, желательно не удалять старые серии как можно дольше чтобы релизёр не столько продолжал раздавать старые серии, а смог сконцентрироваться на новых.
pb.wtf



Скачать Огненный ангел\Серия 1-4 из 4\ через торрент http://i105.fastpic.ru/big/2018/0421/a8/609e6ce547da673d6aa4cae0ff21cfa8.jpg Скачать фильм Огненный ангел\Серия 1-4 из 4\ через торрент бесплантно в хорошем качестве Описание: После аварии 11 лет назад Ева Заринская потеряла память. О своем прошлом она знает только по рассказам мужа Дмитрия. Проведя ... 10 10 5
Торрент: Зарегистрирован [2018-04-21 13:59] · скачан: 128 раз
Статус: √ проверено
Размер: 2.34 GB
Как cкачать? Как скачать Огненный ангел\Серия 1-4 из 4\ через торрент | qTorrent

% Раздел Тема Автор DL S | L
Наши сериалы [ 11.25 GB ] Огненный ангел / Серии: 1-4 из 4 [2018 HDTV 1080i] bober100 Скачать
1 | 0
Наши сериалы [ 4.21 GB ] Огненный ангел / Серии: 1-4 из 4 [2018 Психологический WEB-DL 720p] bober100 Скачать
1 | 0
Наши сериалы [ 2.3 GB ] Огненный ангел / Серии: 1-4 из 4 [2018 Психологический WEB-DLRip-AVC] bober100 Скачать
1 | 0
Наши сериалы [ 2.16 GB ] Огненный ангел / Серии: 1-4 из 4 [2018 Психологический WEB-DLRip] bober100 Скачать
1 | 0
Наши сериалы [ 2.25 GB ] Огненный ангел / Серии: 1-4 из 4 [2018 SATRip-AVC] aleksan55 Скачать
1 | 0

28-11-2019 20:33  

Отключить всю рекламу на сайте

    Дорогой пользователь! Огромная просьба, поблагодарите релизера, оцените раздачу и оставьте свои комментарий, если Вы скачали Огненный ангел\Серия 1-4 из 4\ через торрент бесплатно! Внесите свою лепту в развитие PiratBit!
    Комментировать посты могут только пользователи прошедшие не сложную регистрацию
    Показать сообщения:    

    Огненный ангел\Серия 1-4 из 4\ через торрент
    Скачать бесплатно Огненный ангел\Серия 1-4 из 4\
    Огненный ангел\Серия 1-4 из 4\ скачать торрент
    Огненный ангел\Серия 1-4 из 4\ смотреть онлайн
    Cкачать фильм Огненный ангел\Серия 1-4 из 4\ бесплатно
    Огненный ангел\Серия 1-4 из 4\ скачать торрент в хорошем качестве
    Огненный ангел\Серия 1-4 из 4\ смотреть онлайн бесплатно в хорошем качестве


    Вы не можете начинать темы
    Вы не можете отвечать на сообщения
    Вы не можете редактировать свои сообщения
    Вы не можете удалять свои сообщения
    Вы не можете голосовать в опросах
    Вы не можете прикреплять файлы к сообщениям
    Вы можете скачивать файлы