Всегда рабочее зеркало без VPN и Proxy просто перед .vidak.icu напиши любое слово или цифру, Пример http://rbab.vidak.icu

MVO

2 сезон

2 сезон

1

1 сезон

iTunes

2 сезон

13

1 сезон

Deluxe

pack

Рекомендуем

Пиратка

30

ВАЖНО

RePack

MK11

RePack

jed

RePack

fifa19

RePack

RDR2

RePack

NEED FOR SPEED™ PAYBACK

Кинопоиск HD

6 сезон

 Острые козырьки 6 сезон

Все сериалы

все сериалы на PB.wtf

RePack

FAR CRY 5

Anonymous, нам критически не хватает 5601 руб. на оплату серверов и переферии за Апрель, помоги нам пожалуйста, вся надежда только на тебя. В благодарность мы отключим тебе всю рекламу на сайте!

×
  
Magnet ссылка

Плохая партия / The Bad Batch (Ана Лили Амирпур) [2016, Фантастика, ужасы, драма, мелодрама, BDRip] MVO [СВ Студия] pb.wtf

Плохая партия через торрент pb.wtf

Размер: 1.46 GB | Добавлен: 4 года назад | Торрент скачан:442 раза
Смотреть онлайн Плохая партия | Скачать    Ребята, помогите собрать деньги на оплату серверов!!!

22-04-2018 09:17 Плохая партия Скачать торрент  

Плохая партия / The Bad BatchГод выпуска: 2016
Страна: США
Жанр: Фантастика, ужасы, драма, мелодрама
Продолжительность: 01:58:39
Перевод: Профессиональный (многоголосый) | СВ Студия
Субтитры: отсутствуют

Режиссер: Ана Лили Амирпур

rating

В ролях:

Сьюки Уотерхаус, Джейсон Момоа, Джайда Финк, Киану Ривз, Диего Луна, Джим Керри, Йолонда Росс, Джованни Рибизи

Описание:

Местом действия постапокалиптической картины станет техасский пустырь, где обосновалось сообщество каннибалов. Один из них, известный под прозвищем Человек из Майами, влюбляется в свою потенциальную пищу.

Качество: BDRip
Формат: AVI

Видео: XviD, 1300 Кбит/с, 720x304, 23.976 кадр/с
Аудио: Русский (AC3, 6 ch, 448 Кбит/с)
скриншот  скриншот  скриншот  

Общее
Полное имя : D:\The.Bad.Batch.2016.BDRip-ylnian_FilmsClub.avi
Формат : AVI
Формат/Информация : Audio Video Interleave
Размер файла : 1,46 Гбайт
Продолжительность : 1 ч. 58 м.
Общий поток : 1757 Кбит/сек
Программа кодирования : VirtualDubMod 1.5.10.3 | www.virtualdub-fr.org || (build 2550/release)
Библиотека кодирования : VirtualDubMod build 2550/release

Видео
Идентификатор : 0
Формат : MPEG-4 Visual
Профиль формата : Advanced Simple@L5
Настройки формата : BVOP1
Параметр BVOP формата : 1
Параметр QPel формата : Нет
Параметр GMC формата : Без точки перехода
Параметр матрицы формата : Default (MPEG)
Идентификатор кодека : XVID
Идентификатор кодека/Подсказка : XviD
Продолжительность : 1 ч. 58 м.
Битрейт : 1300 Кбит/сек
Ширина : 720 пикселей
Высота : 304 пикселя
Соотношение сторон : 2,35:1
Частота кадров : 23,976 (24000/1001) кадра/сек
Цветовое пространство : YUV
Субдискретизация насыщенности : 4:2:0
Битовая глубина : 8 бит
Тип развёртки : Прогрессивная
Метод сжатия : С потерями
Бит/(Пиксели*Кадры) : 0.248
Размер потока : 1,08 Гбайт (74%)
Библиотека кодирования : XviD 67

Аудио
Идентификатор : 1
Формат : AC-3
Формат/Информация : Audio Coding 3
Идентификатор кодека : 2000
Продолжительность : 1 ч. 58 м.
Вид битрейта : Постоянный
Битрейт : 448 Кбит/сек
Каналы : 6 каналов
Расположение каналов : Front: L C R, Side: L R, LFE
Частота : 48,0 КГц
Частота кадров : 31,250 кадров/сек (1536 SPF)
Битовая глубина : 16 бит
Метод сжатия : С потерями
Размер потока : 380 Мбайт (25%)
Выравнивание : Разделение по промежуткам
Продолжительность промежутка : 42 мс. (1,00 видеокадр)
Время предзагрузки промежутка : 500 мс.
Заголовок : RUS - MVO
ServiceKind/String : Complete Main

pb.wtf



Скачать Плохая партия через торрент http://s010.radikal.ru/i314/1707/99/25d35890dc7c.jpg Скачать, смотреть онлайн Плохая партия бесплантно в хорошем качестве Описание: Местом действия постапокалиптической картины станет техасский пустырь, где обосновалось сообщество каннибалов. Один из них, ... 6.8 10 9
Info! Золотая раздача, скачанное не засчитывается.
Торрент: Зарегистрирован [2018-04-22 09:17] · скачан: 442 раз
Статус: √ проверено
Размер: 1.46 GB
Как cкачать? Как скачать Плохая партия через торрент | UTorrent

% Раздел Тема Автор DL S | L
Фильмы [HD 720p, 1080p] (Хороший звук DUB, MVO) [ 10.87 GB ] Плохая партия / The Bad Batch [2016 BDRip 1080p] MVO [СВ Студия] bober100 Скачать
1 | 0
Фильмы [HD 720p, 1080p] (Хороший звук DUB, MVO) [ 7.55 GB ] Плохая партия / The Bad Batch [2016 BDRip 720p] MVO [СВ Студия] bober100 Скачать
1 | 0
Фильмы (Blu-ray, BD-Remux, HDDVD) [ 30.88 GB ] Плохая партия / The Bad Batch [2016 BD Remux 1080p] AVO [BadBajo] bober100 Скачать
1 | 0
Фильмы с авторской озвучкой [ 1.97 GB ] Плохая партия / The Bad Batch [2016 HDRip-AVC] AVO - ExKinoRay Enigma2010 Скачать
1 | 0
Фильмы с авторской озвучкой [ 1.45 GB ] Плохая партия / The Bad Batch [2016 HDRip] AVO - ExKinoRay Enigma2010 Скачать
1 | 0
Фильмы с авторской озвучкой [ 4.4 GB ] Плохая партия / The Bad Batch [2016 WEB-DL 1080p] AVO PROCTOLOG Скачать
1 | 0
R.G. Resident & PiratVoice - Фильмы, Видео [ 1.9 GB ] Плохая партия / The Bad Batch [2016 WEB-DLRip-AVC от R.G. Resident] AVO [BadBajo] DEVI Скачать
1 | 0

28-11-2019 20:33  

Отключить всю рекламу на сайте

22-04-2018 12:38 Плохая партия Скачать торрент  

Эмоции вызывают только первые сцены насилия. Далее - всё скучно и бредово. Даже Джим Кэрри не спас этот фильм.pb.wtf



22-04-2018 20:46 Плохая партия Скачать торрент  

Юный Чикатилла, ты шутишь что ли) но если и правда не видел посмотри 3 скринpb.wtf



23-04-2018 11:58 Плохая партия Скачать торрент  

kickass duke писал(а):

Эмоции вызывают только первые сцены насилия. Далее - всё скучно и бредово. Даже Джим Кэрри не спас этот фильм.

Полностью согласен с вами. фильм на 3 из 5, автору спс.pb.wtf



    Дорогой пользователь! Огромная просьба, поблагодарите релизера, оцените раздачу и оставьте свои комментарий, если Вы скачали Плохая партия через торрент бесплатно!
    Комментировать посты могут только пользователи прошедшие не сложную регистрацию
    Показать сообщения:    

    Плохая партия через торрент
    Скачать бесплатно Плохая партия
    Плохая партия скачать торрент
    Плохая партия смотреть онлайн
    Cкачать фильм Плохая партия бесплатно
    Плохая партия скачать торрент в хорошем качестве
    Плохая партия смотреть онлайн бесплатно в хорошем качестве


    Вы не можете начинать темы
    Вы не можете отвечать на сообщения
    Вы не можете редактировать свои сообщения
    Вы не можете удалять свои сообщения
    Вы не можете голосовать в опросах
    Вы не можете прикреплять файлы к сообщениям
    Вы можете скачивать файлы